  0
SECTION
  2
HEADER
  9
$ACADVER
  1
AC1014
  9
$ACADMAINTVER
 70
     9
  9
$DWGCODEPAGE
  3
ANSI_932
  9
$INSBASE
 10
0.0
 20
0.0
 30
0.0
  9
$EXTMIN
 10
183.0572547636524
 20
-2262.789044377323
 30
0.0
  9
$EXTMAX
 10
5050.802259671917
 20
5191.051715174697
 30
0.0
  9
$LIMMIN
 10
0.0
 20
0.0
  9
$LIMMAX
 10
7920.0
 20
5460.0
  9
$ORTHOMODE
 70
     0
  9
$REGENMODE
 70
     0
  9
$FILLMODE
 70
     1
  9
$QTEXTMODE
 70
     0
  9
$MIRRTEXT
 70
     0
  9
$DRAGMODE
 70
     2
  9
$LTSCALE
 40
200.0
  9
$OSMODE
 70
    45
  9
$ATTMODE
 70
     1
  9
$TEXTSIZE
 40
60.0
  9
$TRACEWID
 40
0.05
  9
$TEXTSTYLE
  7
STANDARD
  9
$CLAYER
  8
1
  9
$CELTYPE
  6
BYLAYER
  9
$CECOLOR
 62
   256
  9
$CELTSCALE
 40
1.0
  9
$DELOBJ
 70
     1
  9
$DISPSILH
 70
     0
  9
$DIMSCALE
 40
20.0
  9
$DIMASZ
 40
2.0
  9
$DIMEXO
 40
0.0
  9
$DIMDLI
 40
10.0
  9
$DIMRND
 40
0.0
  9
$DIMDLE
 40
2.0
  9
$DIMEXE
 40
0.0
  9
$DIMTP
 40
0.0
  9
$DIMTM
 40
0.0
  9
$DIMTXT
 40
2.0
  9
$DIMCEN
 40
0.0
  9
$DIMTSZ
 40
0.0
  9
$DIMTOL
 70
     0
  9
$DIMLIM
 70
     0
  9
$DIMTIH
 70
     0
  9
$DIMTOH
 70
     0
  9
$DIMSE1
 70
     0
  9
$DIMSE2
 70
     0
  9
$DIMTAD
 70
     3
  9
$DIMZIN
 70
     0
  9
$DIMBLK
  1

  9
$DIMASO
 70
     1
  9
$DIMSHO
 70
     1
  9
$DIMPOST
  1

  9
$DIMAPOST
  1

  9
$DIMALT
 70
     0
  9
$DIMALTD
 70
     2
  9
$DIMALTF
 40
25.4
  9
$DIMLFAC
 40
1.0
  9
$DIMTOFL
 70
     1
  9
$DIMTVP
 40
0.0
  9
$DIMTIX
 70
     1
  9
$DIMSOXD
 70
     0
  9
$DIMSAH
 70
     1
  9
$DIMBLK1
  1
OPEN
  9
$DIMBLK2
  1
OPEN
  9
$DIMSTYLE
  2
STANDARD
  9
$DIMCLRD
 70
     0
  9
$DIMCLRE
 70
     0
  9
$DIMCLRT
 70
     0
  9
$DIMTFAC
 40
1.0
  9
$DIMGAP
 40
1.0
  9
$DIMJUST
 70
     0
  9
$DIMSD1
 70
     0
  9
$DIMSD2
 70
     0
  9
$DIMTOLJ
 70
     1
  9
$DIMTZIN
 70
     0
  9
$DIMALTZ
 70
     0
  9
$DIMALTTZ
 70
     0
  9
$DIMFIT
 70
     3
  9
$DIMUPT
 70
     0
  9
$DIMUNIT
 70
     2
  9
$DIMDEC
 70
     1
  9
$DIMTDEC
 70
     1
  9
$DIMALTU
 70
     2
  9
$DIMALTTD
 70
     2
  9
$DIMTXSTY
  7
STANDARD
  9
$DIMAUNIT
 70
     1
  9
$LUNITS
 70
     2
  9
$LUPREC
 70
     1
  9
$SKETCHINC
 40
0.1
  9
$FILLETRAD
 40
0.0
  9
$AUNITS
 70
     1
  9
$AUPREC
 70
     2
  9
$MENU
  1
A:\r13jc4\win\SUPPORT\naruex
  9
$ELEVATION
 40
0.0
  9
$PELEVATION
 40
0.0
  9
$THICKNESS
 40
0.0
  9
$LIMCHECK
 70
     0
  9
$BLIPMODE
 70
     0
  9
$CHAMFERA
 40
0.0
  9
$CHAMFERB
 40
0.0
  9
$CHAMFERC
 40
0.0
  9
$CHAMFERD
 40
0.0
  9
$SKPOLY
 70
     0
  9
$TDCREATE
 40
2453179.383958333
  9
$TDUPDATE
 40
2453818.436631574
  9
$TDINDWG
 40
0.7163677199
  9
$TDUSRTIMER
 40
0.7163677199
  9
$USRTIMER
 70
     1
  9
$ANGBASE
 50
0.0
  9
$ANGDIR
 70
     0
  9
$PDMODE
 70
     0
  9
$PDSIZE
 40
0.0
  9
$PLINEWID
 40
0.0
  9
$COORDS
 70
     1
  9
$SPLFRAME
 70
     0
  9
$SPLINETYPE
 70
     6
  9
$SPLINESEGS
 70
     8
  9
$ATTDIA
 70
     0
  9
$ATTREQ
 70
     1
  9
$HANDLING
 70
     1
  9
$HANDSEED
  5
464
  9
$SURFTAB1
 70
     6
  9
$SURFTAB2
 70
     6
  9
$SURFTYPE
 70
     6
  9
$SURFU
 70
     6
  9
$SURFV
 70
     6
  9
$UCSNAME
  2

  9
$UCSORG
 10
0.0
 20
0.0
 30
0.0
  9
$UCSXDIR
 10
1.0
 20
0.0
 30
0.0
  9
$UCSYDIR
 10
0.0
 20
1.0
 30
0.0
  9
$PUCSNAME
  2

  9
$PUCSORG
 10
0.0
 20
0.0
 30
0.0
  9
$PUCSXDIR
 10
1.0
 20
0.0
 30
0.0
  9
$PUCSYDIR
 10
0.0
 20
1.0
 30
0.0
  9
$USERI1
 70
     0
  9
$USERI2
 70
     0
  9
$USERI3
 70
     0
  9
$USERI4
 70
     0
  9
$USERI5
 70
     0
  9
$USERR1
 40
0.0
  9
$USERR2
 40
0.0
  9
$USERR3
 40
0.0
  9
$USERR4
 40
0.0
  9
$USERR5
 40
0.0
  9
$WORLDVIEW
 70
     1
  9
$SHADEDGE
 70
     3
  9
$SHADEDIF
 70
    70
  9
$TILEMODE
 70
     1
  9
$MAXACTVP
 70
    16
  9
$PINSBASE
 10
0.0
 20
0.0
 30
0.0
  9
$PLIMCHECK
 70
     0
  9
$PEXTMIN
 10
62.69385923801746
 20
59.08273514864413
 30
0.0
  9
$PEXTMAX
 10
5726.389268737446
 20
8190.978423985264
 30
0.0
  9
$PLIMMIN
 10
-75.14166355133056
 20
-75.14153957366943
  9
$PLIMMAX
 10
5864.224791526794
 20
8325.202698707581
  9
$UNITMODE
 70
     0
  9
$VISRETAIN
 70
     0
  9
$PLINEGEN
 70
     0
  9
$PSLTSCALE
 70
     1
  9
$TREEDEPTH
 70
  3020
  9
$PICKSTYLE
 70
     1
  9
$CMLSTYLE
  2
STANDARD
  9
$CMLJUST
 70
     0
  9
$CMLSCALE
 40
1.0
  9
$PROXYGRAPHICS
 70
     1
  9
$MEASUREMENT
 70
     1
  0
ENDSEC
  0
SECTION
  2
CLASSES
  0
CLASS
  1
LWPOLYLINE
  2
AcDbPolyline
  3
AutoCAD 2000
 90
        0
280
     0
281
     1
  0
CLASS
  1
ACDBDICTIONARYWDFLT
  2
AcDbDictionaryWithDefault
  3
AutoCAD 2000
 90
        0
280
     0
281
     0
  0
CLASS
  1
ACDBPLACEHOLDER
  2
AcDbPlaceHolder
  3
AutoCAD 2000
 90
        0
280
     0
281
     0
  0
CLASS
  1
LAYOUT
  2
AcDbLayout
  3
AutoCAD 2000
 90
        0
280
     0
281
     0
  0
CLASS
  1
DICTIONARYVAR
  2
AcDbDictionaryVar
  3
AutoCAD 2000
 90
        0
280
     0
281
     0
  0
CLASS
  1
TABLESTYLE
  2
AcDbTableStyle
  3
ObjectDBX Classes
 90
     2047
280
     1
281
     0
  0
CLASS
  1
LONG_TRANSACTION
  2
AcDbLongTransaction
  3
AutoCAD 2000
 90
        0
280
     0
281
     0
  0
CLASS
  1
LWPOLYLINE
  2
AcDbPolyline
  3
AutoCAD 2000
 90
        0
280
     0
281
     1
  0
CLASS
  1
HATCH
  2
AcDbHatch
  3
AutoCAD 2000
 90
        0
280
     0
281
     1
  0
CLASS
  1
XRECORD
  2
AcDbXrecord
  3
AutoCAD 2000
 90
        0
280
     0
281
     0
  0
ENDSEC
  0
SECTION
  2
TABLES
  0
TABLE
  2
VPORT
  5
20
330
0
100
AcDbSymbolTable
 70
     1
  0
VPORT
  5
21
330
20
100
AcDbSymbolTableRecord
100
AcDbViewportTableRecord
  2
*ACTIVE
 70
     0
 10
0.0
 20
0.0
 11
1.0
 21
1.0
 12
5000.97055808473
 22
1437.884576852336
 13
0.0
 23
0.0
 14
100.0
 24
100.0
 15
0.0
 25
0.0
 16
0.0
 26
0.0
 36
1.0
 17
0.0
 27
0.0
 37
0.0
 40
7572.038929569822
 41
1.296992481203007
 42
50.0
 43
0.0
 44
0.0
 50
0.0
 51
0.0
 71
     0
 72
   100
 73
     1
 74
     1
 75
     0
 76
     0
 77
     0
 78
     0
  0
ENDTAB
  0
TABLE
  2
LTYPE
  5
1B
330
0
100
AcDbSymbolTable
 70
     3
  0
LTYPE
  5
1C
330
1B
100
AcDbSymbolTableRecord
100
AcDbLinetypeTableRecord
  2
BYBLOCK
 70
     0
  3

 72
    65
 73
     0
 40
0.0
  0
LTYPE
  5
1D
330
1B
100
AcDbSymbolTableRecord
100
AcDbLinetypeTableRecord
  2
BYLAYER
 70
     0
  3

 72
    65
 73
     0
 40
0.0
  0
LTYPE
  5
8
330
1B
100
AcDbSymbolTableRecord
100
AcDbLinetypeTableRecord
  2
CONTINUOUS
 70
     0
  3
Solid line
 72
    65
 73
     0
 40
0.0
  0
LTYPE
  5
C7
330
1B
100
AcDbSymbolTableRecord
100
AcDbLinetypeTableRecord
  2
CENTER
 70
     0
  3
____ _ ____ _ ____ _ ____ _ ____ _ ____ _ ____ 
 72
    65
 73
     4
 40
2.0
 49
1.25
 74
     0
 49
-0.25
 74
     0
 49
0.25
 74
     0
 49
-0.25
 74
     0
  0
LTYPE
  5
71
330
1B
100
AcDbSymbolTableRecord
100
AcDbLinetypeTableRecord
  2
HIDDEN
 70
     0
  3
__ __ __ __ __ __ __ __ __ __ __ __ __ __ __ __
 72
    65
 73
     2
 40
0.375
 49
0.25
 74
     0
 49
-0.125
 74
     0
  0
ENDTAB
  0
TABLE
  2
LAYER
  5
14
102
{ACAD_XDICTIONARY
360
15
102
}
330
0
100
AcDbSymbolTable
 70
     7
  0
LAYER
  5
4
330
14
100
AcDbSymbolTableRecord
100
AcDbLayerTableRecord
  2
0
 70
     0
 62
     1
  6
CONTINUOUS
  0
LAYER
  5
3A
330
14
100
AcDbSymbolTableRecord
100
AcDbLayerTableRecord
  2
DEFPOINTS
 70
     0
 62
    -7
  6
CONTINUOUS
  0
LAYER
  5
30
330
14
100
AcDbSymbolTableRecord
100
AcDbLayerTableRecord
  2
1
 70
     0
 62
     5
  6
CONTINUOUS
  0
LAYER
  5
17C
330
14
100
AcDbSymbolTableRecord
100
AcDbLayerTableRecord
  2
3
 70
     0
 62
     7
  6
CONTINUOUS
  0
LAYER
  5
C6
330
14
100
AcDbSymbolTableRecord
100
AcDbLayerTableRecord
  2
4
 70
     0
 62
     7
  6
CENTER
  0
LAYER
  5
8B
330
14
100
AcDbSymbolTableRecord
100
AcDbLayerTableRecord
  2
5
 70
     0
 62
     5
  6
CONTINUOUS
  0
LAYER
  5
70
330
14
100
AcDbSymbolTableRecord
100
AcDbLayerTableRecord
  2
6
 70
     0
 62
     6
  6
HIDDEN
  0
ENDTAB
  0
TABLE
  2
STYLE
  5
18
330
0
100
AcDbSymbolTable
 70
     1
  0
STYLE
  5
19
330
18
100
AcDbSymbolTableRecord
100
AcDbTextStyleTableRecord
  2
STANDARD
 70
     0
 40
0.0
 41
1.0
 50
0.0
 71
     0
 42
60.0
  3
TXT
  4
BIGFONT
  0
ENDTAB
  0
TABLE
  2
VIEW
  5
1E
330
0
100
AcDbSymbolTable
 70
     0
  0
ENDTAB
  0
TABLE
  2
UCS
  5
1F
330
0
100
AcDbSymbolTable
 70
     0
  0
ENDTAB
  0
TABLE
  2
APPID
  5
22
330
0
100
AcDbSymbolTable
 70
     1
  0
APPID
  5
23
330
22
100
AcDbSymbolTableRecord
100
AcDbRegAppTableRecord
  2
ACAD
 70
     0
  0
ENDTAB
  0
TABLE
  2
DIMSTYLE
  5
24
330
0
100
AcDbSymbolTable
 70
     1
  0
DIMSTYLE
105
25
102
{ACAD_REACTORS
330
36F
330
2E2
330
2C0
330
2AD
330
B5
330
A6
330
358
330
3F3
330
151
330
FD
330
29F
330
30B
330
142
330
E7
330
D7
330
8C
330
3CF
330
78
330
3C0
330
C8
330
106
330
1F7
330
12A
330
15E
330
171
330
115
330
1CA
330
2D2
330
27F
330
28E
330
347
330
42
330
60
330
51
330
34
330
422
330
40A
330
39C
330
265
330
24A
330
2F1
330
385
330
32A
330
199
330
209
102
}
330
24
100
AcDbSymbolTableRecord
100
AcDbDimStyleTableRecord
  2
STANDARD
 70
     0
  3

  4

  5

  6
OPEN
  7
OPEN
 40
20.0
 41
2.0
 42
0.0
 43
10.0
 44
0.0
 45
0.0
 46
2.0
 47
0.0
 48
0.0
140
2.0
141
0.0
142
0.0
143
25.4
144
1.0
145
0.0
146
1.0
147
1.0
 71
     0
 72
     0
 73
     0
 74
     0
 75
     0
 76
     0
 77
     3
 78
     0
170
     0
171
     2
172
     1
173
     1
174
     1
175
     0
176
     0
177
     0
178
     0
270
     2
271
     1
272
     1
273
     2
274
     2
340
19
275
     1
280
     0
281
     0
282
     0
283
     1
284
     0
285
     0
286
     0
287
     3
288
     0
  0
ENDTAB
  0
TABLE
  2
BLOCK_RECORD
  5
1
330
0
100
AcDbSymbolTable
 70
    46
  0
BLOCK_RECORD
  5
2
102
{ACAD_XDICTIONARY
360
460
102
}
330
1
100
AcDbSymbolTableRecord
100
AcDbBlockTableRecord
  2
*MODEL_SPACE
  0
BLOCK_RECORD
  5
E
102
{ACAD_XDICTIONARY
360
462
102
}
330
1
100
AcDbSymbolTableRecord
100
AcDbBlockTableRecord
  2
*PAPER_SPACE
  0
BLOCK_RECORD
  5
26
330
1
100
AcDbSymbolTableRecord
100
AcDbBlockTableRecord
  2
_OPEN
  0
BLOCK_RECORD
  5
370
330
1
100
AcDbSymbolTableRecord
100
AcDbBlockTableRecord
  2
*D1
  0
BLOCK_RECORD
  5
2E3
330
1
100
AcDbSymbolTableRecord
100
AcDbBlockTableRecord
  2
*D2
  0
BLOCK_RECORD
  5
2C1
330
1
100
AcDbSymbolTableRecord
100
AcDbBlockTableRecord
  2
*D3
  0
BLOCK_RECORD
  5
2AE
330
1
100
AcDbSymbolTableRecord
100
AcDbBlockTableRecord
  2
*D4
  0
BLOCK_RECORD
  5
B6
330
1
100
AcDbSymbolTableRecord
100
AcDbBlockTableRecord
  2
*D5
  0
BLOCK_RECORD
  5
A7
330
1
100
AcDbSymbolTableRecord
100
AcDbBlockTableRecord
  2
*D6
  0
BLOCK_RECORD
  5
359
330
1
100
AcDbSymbolTableRecord
100
AcDbBlockTableRecord
  2
*D7
  0
BLOCK_RECORD
  5
3F4
330
1
100
AcDbSymbolTableRecord
100
AcDbBlockTableRecord
  2
*D8
  0
BLOCK_RECORD
  5
152
330
1
100
AcDbSymbolTableRecord
100
AcDbBlockTableRecord
  2
*D9
  0
BLOCK_RECORD
  5
FE
330
1
100
AcDbSymbolTableRecord
100
AcDbBlockTableRecord
  2
*D10
  0
BLOCK_RECORD
  5
2A0
330
1
100
AcDbSymbolTableRecord
100
AcDbBlockTableRecord
  2
*D11
  0
BLOCK_RECORD
  5
30C
330
1
100
AcDbSymbolTableRecord
100
AcDbBlockTableRecord
  2
*D12
  0
BLOCK_RECORD
  5
143
330
1
100
AcDbSymbolTableRecord
100
AcDbBlockTableRecord
  2
*D13
  0
BLOCK_RECORD
  5
E8
330
1
100
AcDbSymbolTableRecord
100
AcDbBlockTableRecord
  2
*D14
  0
BLOCK_RECORD
  5
D8
330
1
100
AcDbSymbolTableRecord
100
AcDbBlockTableRecord
  2
*D15
  0
BLOCK_RECORD
  5
8D
330
1
100
AcDbSymbolTableRecord
100
AcDbBlockTableRecord
  2
*D16
  0
BLOCK_RECORD
  5
3D0
330
1
100
AcDbSymbolTableRecord
100
AcDbBlockTableRecord
  2
*D17
  0
BLOCK_RECORD
  5
79
330
1
100
AcDbSymbolTableRecord
100
AcDbBlockTableRecord
  2
*D18
  0
BLOCK_RECORD
  5
3C1
330
1
100
AcDbSymbolTableRecord
100
AcDbBlockTableRecord
  2
*D19
  0
BLOCK_RECORD
  5
61
330
1
100
AcDbSymbolTableRecord
100
AcDbBlockTableRecord
  2
*D20
  0
BLOCK_RECORD
  5
52
330
1
100
AcDbSymbolTableRecord
100
AcDbBlockTableRecord
  2
*D21
  0
BLOCK_RECORD
  5
C9
330
1
100
AcDbSymbolTableRecord
100
AcDbBlockTableRecord
  2
*D22
  0
BLOCK_RECORD
  5
12B
330
1
100
AcDbSymbolTableRecord
100
AcDbBlockTableRecord
  2
*D23
  0
BLOCK_RECORD
  5
172
330
1
100
AcDbSymbolTableRecord
100
AcDbBlockTableRecord
  2
*D24
  0
BLOCK_RECORD
  5
1CB
330
1
100
AcDbSymbolTableRecord
100
AcDbBlockTableRecord
  2
*D25
  0
BLOCK_RECORD
  5
116
330
1
100
AcDbSymbolTableRecord
100
AcDbBlockTableRecord
  2
*D26
  0
BLOCK_RECORD
  5
15F
330
1
100
AcDbSymbolTableRecord
100
AcDbBlockTableRecord
  2
*D27
  0
BLOCK_RECORD
  5
1F8
330
1
100
AcDbSymbolTableRecord
100
AcDbBlockTableRecord
  2
*D28
  0
BLOCK_RECORD
  5
107
330
1
100
AcDbSymbolTableRecord
100
AcDbBlockTableRecord
  2
*D29
  0
BLOCK_RECORD
  5
28F
330
1
100
AcDbSymbolTableRecord
100
AcDbBlockTableRecord
  2
*D30
  0
BLOCK_RECORD
  5
280
330
1
100
AcDbSymbolTableRecord
100
AcDbBlockTableRecord
  2
*D31
  0
BLOCK_RECORD
  5
2D3
330
1
100
AcDbSymbolTableRecord
100
AcDbBlockTableRecord
  2
*D32
  0
BLOCK_RECORD
  5
348
330
1
100
AcDbSymbolTableRecord
100
AcDbBlockTableRecord
  2
*D33
  0
BLOCK_RECORD
  5
43
330
1
100
AcDbSymbolTableRecord
100
AcDbBlockTableRecord
  2
*D34
  0
BLOCK_RECORD
  5
35
330
1
100
AcDbSymbolTableRecord
100
AcDbBlockTableRecord
  2
*D35
  0
BLOCK_RECORD
  5
423
330
1
100
AcDbSymbolTableRecord
100
AcDbBlockTableRecord
  2
*D36
  0
BLOCK_RECORD
  5
39D
330
1
100
AcDbSymbolTableRecord
100
AcDbBlockTableRecord
  2
*D37
  0
BLOCK_RECORD
  5
386
330
1
100
AcDbSymbolTableRecord
100
AcDbBlockTableRecord
  2
*D38
  0
BLOCK_RECORD
  5
32B
330
1
100
AcDbSymbolTableRecord
100
AcDbBlockTableRecord
  2
*D39
  0
BLOCK_RECORD
  5
24B
330
1
100
AcDbSymbolTableRecord
100
AcDbBlockTableRecord
  2
*D40
  0
BLOCK_RECORD
  5
2F2
330
1
100
AcDbSymbolTableRecord
100
AcDbBlockTableRecord
  2
*D41
  0
BLOCK_RECORD
  5
40B
330
1
100
AcDbSymbolTableRecord
100
AcDbBlockTableRecord
  2
*D42
  0
BLOCK_RECORD
  5
266
330
1
100
AcDbSymbolTableRecord
100
AcDbBlockTableRecord
  2
*D43
  0
BLOCK_RECORD
  5
20A
330
1
100
AcDbSymbolTableRecord
100
AcDbBlockTableRecord
  2
*D44
  0
BLOCK_RECORD
  5
19A
330
1
100
AcDbSymbolTableRecord
100
AcDbBlockTableRecord
  2
*D45
  0
ENDTAB
  0
ENDSEC
  0
SECTION
  2
BLOCKS
  0
BLOCK
  5
3
330
2
100
AcDbEntity
  8
0
100
AcDbBlockBegin
  2
*MODEL_SPACE
 70
     0
 10
0.0
 20
0.0
 30
0.0
  3
*MODEL_SPACE
  1

  0
ENDBLK
  5
9
330
2
100
AcDbEntity
  8
0
100
AcDbBlockEnd
  0
BLOCK
  5
F
330
E
100
AcDbEntity
 67
     1
  8
0
100
AcDbBlockBegin
  2
*PAPER_SPACE
 70
     0
 10
0.0
 20
0.0
 30
0.0
  3
*PAPER_SPACE
  1

  0
ENDBLK
  5
10
330
E
100
AcDbEntity
 67
     1
  8
0
100
AcDbBlockEnd
  0
BLOCK
  5
2A
330
26
100
AcDbEntity
  8
0
100
AcDbBlockBegin
  2
_OPEN
 70
     0
 10
0.0
 20
0.0
 30
0.0
  3
_OPEN
  1

  0
LINE
  5
27
330
26
100
AcDbEntity
  8
0
  6
BYBLOCK
 62
     0
100
AcDbLine
 10
-1.0
 20
0.1666666666666666
 30
0.0
 11
0.0
 21
0.0
 31
0.0
  0
LINE
  5
28
330
26
100
AcDbEntity
  8
0
  6
BYBLOCK
 62
     0
100
AcDbLine
 10
0.0
 20
0.0
 30
0.0
 11
-1.0
 21
-0.1666666666666666
 31
0.0
  0
LINE
  5
29
330
26
100
AcDbEntity
  8
0
  6
BYBLOCK
 62
     0
100
AcDbLine
 10
0.0
 20
0.0
 30
0.0
 11
-1.0
 21
0.0
 31
0.0
  0
ENDBLK
  5
2B
330
26
100
AcDbEntity
  8
0
100
AcDbBlockEnd
  0
BLOCK
  5
37A
330
370
100
AcDbEntity
  8
0
100
AcDbBlockBegin
  2
*D1
 70
     1
 10
0.0
 20
0.0
 30
0.0
  3
*D1
  1

  0
LINE
  5
371
330
370
100
AcDbEntity
  8
0
 62
     0
100
AcDbLine
 10
2371.58177053017
 20
3933.36867450098
 30
0.0
 11
2473.493846557794
 21
3933.36867450098
 31
0.0
  0
LINE
  5
372
330
370
100
AcDbEntity
  8
0
 62
     0
100
AcDbLine
 10
2371.58177053017
 20
4968.347399264349
 30
0.0
 11
2473.493846557794
 21
4968.347399264349
 31
0.0
  0
LINE
  5
373
330
370
100
AcDbEntity
  8
0
 62
     0
100
AcDbLine
 10
2473.493846557794
 20
3993.36867450098
 30
0.0
 11
2473.493846557794
 21
4908.347399264348
 31
0.0
  0
INSERT
  5
374
330
370
100
AcDbEntity
  8
0
 62
     0
100
AcDbBlockReference
  2
_OPEN
 10
2473.493846557794
 20
3933.36867450098
 30
0.0
 41
60.0
 42
60.0
 43
60.0
 50
270.0
  0
INSERT
  5
375
330
370
100
AcDbEntity
  8
0
 62
     0
100
AcDbBlockReference
  2
_OPEN
 10
2473.493846557794
 20
4968.347399264349
 30
0.0
 41
60.0
 42
60.0
 43
60.0
 50
90.0
  0
MTEXT
  5
376
330
370
100
AcDbEntity
  8
0
 62
     0
100
AcDbMText
 10
2423.493846557794
 20
4450.858036882665
 30
0.0
 40
60.0
 41
0.0
 71
     5
 72
     1
  1
\A1;1035.0
 11
0.0000000000000001
 21
1.0
 31
0.0
1001
ACAD
1000
MTEXTBEGIN
1070
    73
1070
     1
1070
    44
1040
1.0
1070
    74
1070
     0
1000
MTEXTEND
  0
POINT
  5
377
330
370
100
AcDbEntity
  8
DEFPOINTS
 62
     0
100
AcDbPoint
 10
2371.58177053017
 20
3933.36867450098
 30
0.0
  0
POINT
  5
378
330
370
100
AcDbEntity
  8
DEFPOINTS
 62
     0
100
AcDbPoint
 10
2371.58177053017
 20
4968.347399264349
 30
0.0
  0
POINT
  5
379
330
370
100
AcDbEntity
  8
DEFPOINTS
 62
     0
100
AcDbPoint
 10
2473.493846557794
 20
4968.347399264349
 30
0.0
  0
ENDBLK
  5
37B
330
370
100
AcDbEntity
  8
0
100
AcDbBlockEnd
  0
BLOCK
  5
2ED
330
2E3
100
AcDbEntity
  8
0
100
AcDbBlockBegin
  2
*D2
 70
     1
 10
0.0
 20
0.0
 30
0.0
  3
*D2
  1

  0
LINE
  5
2E4
330
2E3
100
AcDbEntity
  8
0
 62
     0
100
AcDbLine
 10
1213.146119945176
 20
3078.347399264341
 30
0.0
 11
354.7517904207848
 21
3078.347399264341
 31
0.0
  0
LINE
  5
2E5
330
2E3
100
AcDbEntity
  8
0
 62
     0
100
AcDbLine
 10
1209.670581625832
 20
4868.347399264341
 30
0.0
 11
354.7517904207852
 21
4868.347399264341
 31
0.0
  0
LINE
  5
2E6
330
2E3
100
AcDbEntity
  8
0
 62
     0
100
AcDbLine
 10
354.7517904207848
 20
3138.347399264342
 30
0.0
 11
354.7517904207852
 21
4808.347399264341
 31
0.0
  0
INSERT
  5
2E7
330
2E3
100
AcDbEntity
  8
0
 62
     0
100
AcDbBlockReference
  2
_OPEN
 10
354.7517904207848
 20
3078.347399264341
 30
0.0
 41
60.0
 42
60.0
 43
60.0
 50
270.0
  0
INSERT
  5
2E8
330
2E3
100
AcDbEntity
  8
0
 62
     0
100
AcDbBlockReference
  2
_OPEN
 10
354.7517904207852
 20
4868.347399264341
 30
0.0
 41
60.0
 42
60.0
 43
60.0
 50
90.0
  0
MTEXT
  5
2E9
330
2E3
100
AcDbEntity
  8
0
 62
     0
100
AcDbMText
 10
284.7517904207844
 20
3973.347399264341
 30
0.0
 40
100.0
 41
0.0
 71
     5
 72
     1
  1
\A1;1790.0
 11
0.0000000000000001
 21
1.0
 31
0.0
1001
ACAD
1000
MTEXTBEGIN
1070
    73
1070
     1
1070
    44
1040
1.0
1070
    74
1070
     0
1000
MTEXTEND
  0
POINT
  5
2EA
330
2E3
100
AcDbEntity
  8
DEFPOINTS
 62
     0
100
AcDbPoint
 10
1213.146119945176
 20
3078.347399264341
 30
0.0
  0
POINT
  5
2EB
330
2E3
100
AcDbEntity
  8
DEFPOINTS
 62
     0
100
AcDbPoint
 10
1209.670581625832
 20
4868.347399264341
 30
0.0
  0
POINT
  5
2EC
330
2E3
100
AcDbEntity
  8
DEFPOINTS
 62
     0
100
AcDbPoint
 10
354.7517904207852
 20
4868.347399264341
 30
0.0
  0
ENDBLK
  5
2EE
330
2E3
100
AcDbEntity
  8
0
100
AcDbBlockEnd
  0
BLOCK
  5
2CB
330
2C1
100
AcDbEntity
  8
0
100
AcDbBlockBegin
  2
*D3
 70
     1
 10
0.0
 20
0.0
 30
0.0
  3
*D3
  1

  0
LINE
  5
2C2
330
2C1
100
AcDbEntity
  8
0
 62
     0
100
AcDbLine
 10
2271.581770530178
 20
3840.486667980767
 30
0.0
 11
2271.581770530178
 21
2871.818533471829
 31
0.0
  0
LINE
  5
2C3
330
2C1
100
AcDbEntity
  8
0
 62
     0
100
AcDbLine
 10
481.5817705301779
 20
3840.486667980767
 30
0.0
 11
481.5817705301778
 21
2871.818533471829
 31
0.0
  0
LINE
  5
2C4
330
2C1
100
AcDbEntity
  8
0
 62
     0
100
AcDbLine
 10
2211.581770530178
 20
2871.818533471829
 30
0.0
 11
541.5817705301779
 21
2871.818533471829
 31
0.0
  0
INSERT
  5
2C5
330
2C1
100
AcDbEntity
  8
0
 62
     0
100
AcDbBlockReference
  2
_OPEN
 10
2271.581770530178
 20
2871.818533471829
 30
0.0
 41
60.0
 42
60.0
 43
60.0
  0
INSERT
  5
2C6
330
2C1
100
AcDbEntity
  8
0
 62
     0
100
AcDbBlockReference
  2
_OPEN
 10
481.5817705301778
 20
2871.818533471829
 30
0.0
 41
60.0
 42
60.0
 43
60.0
 50
180.0
  0
MTEXT
  5
2C7
330
2C1
100
AcDbEntity
  8
0
 62
     0
100
AcDbMText
 10
1376.581770530178
 20
2941.818533471829
 30
0.0
 40
100.0
 41
0.0
 71
     5
 72
     1
  1
\A1;1790.0
1001
ACAD
1000
MTEXTBEGIN
1070
    73
1070
     1
1070
    44
1040
1.0
1070
    74
1070
     0
1000
MTEXTEND
  0
POINT
  5
2C8
330
2C1
100
AcDbEntity
  8
DEFPOINTS
 62
     0
100
AcDbPoint
 10
2271.581770530178
 20
3840.486667980767
 30
0.0
  0
POINT
  5
2C9
330
2C1
100
AcDbEntity
  8
DEFPOINTS
 62
     0
100
AcDbPoint
 10
481.5817705301779
 20
3840.486667980767
 30
0.0
  0
POINT
  5
2CA
330
2C1
100
AcDbEntity
  8
DEFPOINTS
 62
     0
100
AcDbPoint
 10
481.5817705301778
 20
2871.818533471829
 30
0.0
  0
ENDBLK
  5
2CC
330
2C1
100
AcDbEntity
  8
0
100
AcDbBlockEnd
  0
BLOCK
  5
2B8
330
2AE
100
AcDbEntity
  8
0
100
AcDbBlockBegin
  2
*D4
 70
     1
 10
0.0
 20
0.0
 30
0.0
  3
*D4
  1

  0
LINE
  5
2AF
330
2AE
100
AcDbEntity
  8
0
 62
     0
100
AcDbLine
 10
1336.603045766802
 20
4968.347399264345
 30
0.0
 11
1336.603045766802
 21
5111.051715174697
 31
0.0
  0
LINE
  5
2B0
330
2AE
100
AcDbEntity
  8
0
 62
     0
100
AcDbLine
 10
2371.58177053017
 20
4968.347399264349
 30
0.0
 11
2371.58177053017
 21
5111.051715174697
 31
0.0
  0
LINE
  5
2B1
330
2AE
100
AcDbEntity
  8
0
 62
     0
100
AcDbLine
 10
1396.603045766802
 20
5111.051715174697
 30
0.0
 11
2311.58177053017
 21
5111.051715174697
 31
0.0
  0
INSERT
  5
2B2
330
2AE
100
AcDbEntity
  8
0
 62
     0
100
AcDbBlockReference
  2
_OPEN
 10
1336.603045766802
 20
5111.051715174697
 30
0.0
 41
60.0
 42
60.0
 43
60.0
 50
180.0
  0
INSERT
  5
2B3
330
2AE
100
AcDbEntity
  8
0
 62
     0
100
AcDbBlockReference
  2
_OPEN
 10
2371.58177053017
 20
5111.051715174697
 30
0.0
 41
60.0
 42
60.0
 43
60.0
  0
MTEXT
  5
2B4
330
2AE
100
AcDbEntity
  8
0
 62
     0
100
AcDbMText
 10
1854.092408148486
 20
5161.051715174697
 30
0.0
 40
60.0
 41
0.0
 71
     5
 72
     1
  1
\A1;1035.0
1001
ACAD
1000
MTEXTBEGIN
1070
    73
1070
     1
1070
    44
1040
1.0
1070
    74
1070
     0
1000
MTEXTEND
  0
POINT
  5
2B5
330
2AE
100
AcDbEntity
  8
DEFPOINTS
 62
     0
100
AcDbPoint
 10
1336.603045766802
 20
4968.347399264345
 30
0.0
  0
POINT
  5
2B6
330
2AE
100
AcDbEntity
  8
DEFPOINTS
 62
     0
100
AcDbPoint
 10
2371.58177053017
 20
4968.347399264349
 30
0.0
  0
POINT
  5
2B7
330
2AE
100
AcDbEntity
  8
DEFPOINTS
 62
     0
100
AcDbPoint
 10
2371.58177053017
 20
5111.051715174697
 30
0.0
  0
ENDBLK
  5
2B9
330
2AE
100
AcDbEntity
  8
0
100
AcDbBlockEnd
  0
BLOCK
  5
C0
330
B6
100
AcDbEntity
  8
0
100
AcDbBlockBegin
  2
*D5
 70
     1
 10
0.0
 20
0.0
 30
0.0
  3
*D5
  1

  0
LINE
  5
B7
330
B6
100
AcDbEntity
  8
0
 62
     0
100
AcDbLine
 10
4688.883955234743
 20
3737.52398679898
 30
0.0
 11
4688.883955234743
 21
2966.314103629445
 31
0.0
  0
LINE
  5
B8
330
B6
100
AcDbEntity
  8
0
 62
     0
100
AcDbLine
 10
3198.883955234741
 20
3737.52398679898
 30
0.0
 11
3198.883955234741
 21
2966.314103629445
 31
0.0
  0
LINE
  5
B9
330
B6
100
AcDbEntity
  8
0
 62
     0
100
AcDbLine
 10
4648.883955234743
 20
2966.314103629445
 30
0.0
 11
3238.883955234742
 21
2966.314103629445
 31
0.0
  0
INSERT
  5
BA
330
B6
100
AcDbEntity
  8
0
 62
     0
100
AcDbBlockReference
  2
_OPEN
 10
4688.883955234743
 20
2966.314103629445
 30
0.0
 41
40.0
 42
40.0
 43
40.0
  0
INSERT
  5
BB
330
B6
100
AcDbEntity
  8
0
 62
     0
100
AcDbBlockReference
  2
_OPEN
 10
3198.883955234741
 20
2966.314103629445
 30
0.0
 41
40.0
 42
40.0
 43
40.0
 50
180.0
  0
MTEXT
  5
BC
330
B6
100
AcDbEntity
  8
0
 62
     0
100
AcDbMText
 10
3943.883955234742
 20
3036.314103629445
 30
0.0
 40
100.0
 41
0.0
 71
     5
 72
     1
  1
\A1;1490.0
1001
ACAD
1000
MTEXTBEGIN
1070
    73
1070
     1
1070
    44
1040
1.0
1070
    74
1070
     0
1000
MTEXTEND
  0
POINT
  5
BD
330
B6
100
AcDbEntity
  8
DEFPOINTS
 62
     0
100
AcDbPoint
 10
4688.883955234743
 20
3737.52398679898
 30
0.0
  0
POINT
  5
BE
330
B6
100
AcDbEntity
  8
DEFPOINTS
 62
     0
100
AcDbPoint
 10
3198.883955234741
 20
3737.52398679898
 30
0.0
  0
POINT
  5
BF
330
B6
100
AcDbEntity
  8
DEFPOINTS
 62
     0
100
AcDbPoint
 10
3198.883955234741
 20
2966.314103629445
 30
0.0
  0
ENDBLK
  5
C1
330
B6
100
AcDbEntity
  8
0
100
AcDbBlockEnd
  0
BLOCK
  5
B1
330
A7
100
AcDbEntity
  8
0
100
AcDbBlockBegin
  2
*D6
 70
     1
 10
0.0
 20
0.0
 30
0.0
  3
*D6
  1

  0
LINE
  5
A8
330
A7
100
AcDbEntity
  8
0
 62
     0
100
AcDbLine
 10
3983.862654761622
 20
4795.051201413115
 30
0.0
 11
3983.862691772973
 21
4918.886595723338
 31
0.0
  0
LINE
  5
A9
330
A7
100
AcDbEntity
  8
0
 62
     0
100
AcDbLine
 10
3098.884198030535
 20
4795.051465911386
 30
0.0
 11
3098.884235041886
 21
4918.886860221609
 31
0.0
  0
LINE
  5
AA
330
A7
100
AcDbEntity
  8
0
 62
     0
100
AcDbLine
 10
3923.862691772976
 20
4918.88661365586
 30
0.0
 11
3158.884235041883
 21
4918.886842289087
 31
0.0
  0
INSERT
  5
AB
330
A7
100
AcDbEntity
  8
0
 62
     0
100
AcDbBlockReference
  2
_OPEN
 10
3983.862691772973
 20
4918.886595723338
 30
0.0
 41
60.0
 42
60.0
 43
60.0
 50
359.9999828757022
  0
INSERT
  5
AC
330
A7
100
AcDbEntity
  8
0
 62
     0
100
AcDbBlockReference
  2
_OPEN
 10
3098.884235041886
 20
4918.886860221609
 30
0.0
 41
60.0
 42
60.0
 43
60.0
 50
179.9999828757022
  0
MTEXT
  5
AD
330
A7
100
AcDbEntity
  8
0
 62
     0
100
AcDbMText
 10
3541.373478351199
 20
4968.886727972471
 30
0.0
 40
60.0
 41
0.0
 71
     5
 72
     1
  1
\A1;885.0
 11
0.9999999999999554
 21
-0.0000002988753778
 31
0.0
1001
ACAD
1000
MTEXTBEGIN
1070
    73
1070
     1
1070
    44
1040
1.0
1070
    74
1070
     0
1000
MTEXTEND
  0
POINT
  5
AE
330
A7
100
AcDbEntity
  8
DEFPOINTS
 62
     0
100
AcDbPoint
 10
3983.862654761622
 20
4795.051201413115
 30
0.0
  0
POINT
  5
AF
330
A7
100
AcDbEntity
  8
DEFPOINTS
 62
     0
100
AcDbPoint
 10
3098.884198030535
 20
4795.051465911386
 30
0.0
  0
POINT
  5
B0
330
A7
100
AcDbEntity
  8
DEFPOINTS
 62
     0
100
AcDbPoint
 10
3098.884235041886
 20
4918.886860221609
 30
0.0
  0
ENDBLK
  5
B2
330
A7
100
AcDbEntity
  8
0
100
AcDbBlockEnd
  0
BLOCK
  5
363
330
359
100
AcDbEntity
  8
0
100
AcDbBlockBegin
  2
*D7
 70
     1
 10
0.0
 20
0.0
 30
0.0
  3
*D7
  1

  0
LINE
  5
35A
330
359
100
AcDbEntity
  8
0
 62
     0
100
AcDbLine
 10
3098.883917693634
 20
3910.072966305278
 30
0.0
 11
3003.464114371078
 21
3910.072966305279
 31
0.0
  0
LINE
  5
35B
330
359
100
AcDbEntity
  8
0
 62
     0
100
AcDbLine
 10
3098.884198030535
 20
4795.051465911384
 30
0.0
 11
3003.464114371078
 21
4795.051465911384
 31
0.0
  0
LINE
  5
35C
330
359
100
AcDbEntity
  8
0
 62
     0
100
AcDbLine
 10
3003.464114371078
 20
3970.072966305279
 30
0.0
 11
3003.464114371078
 21
4735.051465911385
 31
0.0
  0
INSERT
  5
35D
330
359
100
AcDbEntity
  8
0
 62
     0
100
AcDbBlockReference
  2
_OPEN
 10
3003.464114371078
 20
3910.072966305279
 30
0.0
 41
60.0
 42
60.0
 43
60.0
 50
270.0
  0
INSERT
  5
35E
330
359
100
AcDbEntity
  8
0
 62
     0
100
AcDbBlockReference
  2
_OPEN
 10
3003.464114371078
 20
4795.051465911384
 30
0.0
 41
60.0
 42
60.0
 43
60.0
 50
90.0
  0
MTEXT
  5
35F
330
359
100
AcDbEntity
  8
0
 62
     0
100
AcDbMText
 10
2953.464114371077
 20
4352.562216108332
 30
0.0
 40
60.0
 41
0.0
 71
     5
 72
     1
  1
\A1;885.0
 11
0.0000000000000001
 21
1.0
 31
0.0
1001
ACAD
1000
MTEXTBEGIN
1070
    73
1070
     1
1070
    44
1040
1.0
1070
    74
1070
     0
1000
MTEXTEND
  0
POINT
  5
360
330
359
100
AcDbEntity
  8
DEFPOINTS
 62
     0
100
AcDbPoint
 10
3098.883917693634
 20
3910.072966305278
 30
0.0
  0
POINT
  5
361
330
359
100
AcDbEntity
  8
DEFPOINTS
 62
     0
100
AcDbPoint
 10
3098.884198030535
 20
4795.051465911384
 30
0.0
  0
POINT
  5
362
330
359
100
AcDbEntity
  8
DEFPOINTS
 62
     0
100
AcDbPoint
 10
3003.464114371078
 20
4795.051465911384
 30
0.0
  0
ENDBLK
  5
364
330
359
100
AcDbEntity
  8
0
100
AcDbBlockEnd
  0
BLOCK
  5
3FE
330
3F4
100
AcDbEntity
  8
0
100
AcDbBlockBegin
  2
*D8
 70
     1
 10
0.0
 20
0.0
 30
0.0
  3
*D8
  1

  0
LINE
  5
3F5
330
3F4
100
AcDbEntity
  8
0
 62
     0
100
AcDbLine
 10
4109.874751868894
 20
4695.051691068643
 30
0.0
 11
4910.703248265105
 21
4695.051691068643
 31
0.0
  0
LINE
  5
3F6
330
3F4
100
AcDbEntity
  8
0
 62
     0
100
AcDbLine
 10
4115.226288234676
 20
3205.051691068641
 30
0.0
 11
4910.703248265105
 21
3205.051691068641
 31
0.0
  0
LINE
  5
3F7
330
3F4
100
AcDbEntity
  8
0
 62
     0
100
AcDbLine
 10
4910.703248265105
 20
4655.051691068643
 30
0.0
 11
4910.703248265105
 21
3245.051691068641
 31
0.0
  0
INSERT
  5
3F8
330
3F4
100
AcDbEntity
  8
0
 62
     0
100
AcDbBlockReference
  2
_OPEN
 10
4910.703248265105
 20
4695.051691068643
 30
0.0
 41
40.0
 42
40.0
 43
40.0
 50
90.0
  0
INSERT
  5
3F9
330
3F4
100
AcDbEntity
  8
0
 62
     0
100
AcDbBlockReference
  2
_OPEN
 10
4910.703248265105
 20
3205.051691068641
 30
0.0
 41
40.0
 42
40.0
 43
40.0
 50
270.0
  0
MTEXT
  5
3FA
330
3F4
100
AcDbEntity
  8
0
 62
     0
100
AcDbMText
 10
4840.703248265104
 20
3950.051691068642
 30
0.0
 40
100.0
 41
0.0
 71
     5
 72
     1
  1
\A1;1490.0
 11
0.0000000000000001
 21
1.0
 31
0.0
1001
ACAD
1000
MTEXTBEGIN
1070
    73
1070
     1
1070
    44
1040
1.0
1070
    74
1070
     0
1000
MTEXTEND
  0
POINT
  5
3FB
330
3F4
100
AcDbEntity
  8
DEFPOINTS
 62
     0
100
AcDbPoint
 10
4109.874751868894
 20
4695.051691068643
 30
0.0
  0
POINT
  5
3FC
330
3F4
100
AcDbEntity
  8
DEFPOINTS
 62
     0
100
AcDbPoint
 10
4115.226288234676
 20
3205.051691068641
 30
0.0
  0
POINT
  5
3FD
330
3F4
100
AcDbEntity
  8
DEFPOINTS
 62
     0
100
AcDbPoint
 10
4910.703248265105
 20
3205.051691068641
 30
0.0
  0
ENDBLK
  5
3FF
330
3F4
100
AcDbEntity
  8
0
100
AcDbBlockEnd
  0
BLOCK
  5
15C
330
152
100
AcDbEntity
  8
0
100
AcDbBlockBegin
  2
*D9
 70
     1
 10
0.0
 20
0.0
 30
0.0
  3
*D9
  1

  0
LINE
  5
153
330
152
100
AcDbEntity
  8
0
 62
     0
100
AcDbLine
 10
459.9921394618036
 20
1115.521827399194
 30
0.0
 11
459.9921394618035
 21
232.0682067024845
 31
0.0
  0
LINE
  5
154
330
152
100
AcDbEntity
  8
0
 62
     0
100
AcDbLine
 10
2249.992139461816
 20
1121.641877237829
 30
0.0
 11
2249.992139461816
 21
232.0682067024845
 31
0.0
  0
LINE
  5
155
330
152
100
AcDbEntity
  8
0
 62
     0
100
AcDbLine
 10
519.9921394618036
 20
232.0682067024845
 30
0.0
 11
2189.992139461816
 21
232.0682067024845
 31
0.0
  0
INSERT
  5
156
330
152
100
AcDbEntity
  8
0
 62
     0
100
AcDbBlockReference
  2
_OPEN
 10
459.9921394618035
 20
232.0682067024845
 30
0.0
 41
60.0
 42
60.0
 43
60.0
 50
180.0
  0
INSERT
  5
157
330
152
100
AcDbEntity
  8
0
 62
     0
100
AcDbBlockReference
  2
_OPEN
 10
2249.992139461816
 20
232.0682067024845
 30
0.0
 41
60.0
 42
60.0
 43
60.0
  0
MTEXT
  5
158
330
152
100
AcDbEntity
  8
0
 62
     0
100
AcDbMText
 10
1354.992139461809
 20
302.0682067024845
 30
0.0
 40
100.0
 41
0.0
 71
     5
 72
     1
  1
\A1;1790.0
1001
ACAD
1000
MTEXTBEGIN
1070
    73
1070
     1
1070
    44
1040
1.0
1070
    74
1070
     0
1000
MTEXTEND
  0
POINT
  5
159
330
152
100
AcDbEntity
  8
DEFPOINTS
 62
     0
100
AcDbPoint
 10
459.9921394618036
 20
1115.521827399194
 30
0.0
  0
POINT
  5
15A
330
152
100
AcDbEntity
  8
DEFPOINTS
 62
     0
100
AcDbPoint
 10
2249.992139461816
 20
1121.641877237829
 30
0.0
  0
POINT
  5
15B
330
152
100
AcDbEntity
  8
DEFPOINTS
 62
     0
100
AcDbPoint
 10
2249.992139461816
 20
232.0682067024845
 30
0.0
  0
ENDBLK
  5
15D
330
152
100
AcDbEntity
  8
0
100
AcDbBlockEnd
  0
BLOCK
  5
104
330
FE
100
AcDbEntity
  8
0
100
AcDbBlockBegin
  2
*D10
 70
     1
 10
0.0
 20
0.0
 30
0.0
  3
*D10
  1

  0
LINE
  5
FF
330
FE
100
AcDbEntity
  8
0
 62
     0
100
AcDbLine
 10
1111.818020907745
 20
1525.490784168484
 30
0.0
 11
685.7515226251408
 21
1843.392456516212
 31
0.0
  0
MTEXT
  5
100
330
FE
100
AcDbEntity
  8
0
 62
     0
100
AcDbMText
 10
1009.473561487155
 20
1664.237357552864
 30
0.0
 40
60.0
 41
0.0
 71
     5
 72
     1
  1
\A1;R895.0
 11
0.8014857686666601
 21
-0.598013848188161
 31
0.0
1001
ACAD
1000
MTEXTBEGIN
1070
    73
1070
     1
1070
    44
1040
1.0
1070
    74
1070
     0
1000
MTEXTEND
  0
INSERT
  5
101
330
FE
100
AcDbEntity
  8
0
 62
     0
100
AcDbBlockReference
  2
_OPEN
 10
637.6623765051411
 20
1879.273287407501
 30
0.0
 41
60.0
 42
60.0
 43
60.0
 50
143.2722179572711
  0
POINT
  5
102
330
FE
100
AcDbEntity
  8
DEFPOINTS
 62
     0
100
AcDbPoint
 10
637.6623765051411
 20
1879.273287407501
 30
0.0
  0
POINT
  5
103
330
FE
100
AcDbEntity
  8
DEFPOINTS
 62
     0
100
AcDbPoint
 10
1354.992139461806
 20
1344.050893279094
 30
0.0
  0
ENDBLK
  5
105
330
FE
100
AcDbEntity
  8
0
100
AcDbBlockEnd
  0
BLOCK
  5
2AA
330
2A0
100
AcDbEntity
  8
0
100
AcDbBlockBegin
  2
*D11
 70
     1
 10
0.0
 20
0.0
 30
0.0
  3
*D11
  1

  0
LINE
  5
2A1
330
2A0
100
AcDbEntity
  8
0
 62
     0
100
AcDbLine
 10
2349.992139461816
 20
2339.050893279102
 30
0.0
 11
2349.992139461816
 21
2538.72510525636
 31
0.0
  0
LINE
  5
2A2
330
2A0
100
AcDbEntity
  8
0
 62
     0
100
AcDbLine
 10
1271.992139461809
 20
2339.050893279102
 30
0.0
 11
1271.992139461809
 21
2538.72510525636
 31
0.0
  0
LINE
  5
2A3
330
2A0
100
AcDbEntity
  8
0
 62
     0
100
AcDbLine
 10
2289.992139461815
 20
2538.72510525636
 30
0.0
 11
1331.992139461809
 21
2538.72510525636
 31
0.0
  0
INSERT
  5
2A4
330
2A0
100
AcDbEntity
  8
0
 62
     0
100
AcDbBlockReference
  2
_OPEN
 10
2349.992139461816
 20
2538.72510525636
 30
0.0
 41
60.0
 42
60.0
 43
60.0
  0
INSERT
  5
2A5
330
2A0
100
AcDbEntity
  8
0
 62
     0
100
AcDbBlockReference
  2
_OPEN
 10
1271.992139461809
 20
2538.72510525636
 30
0.0
 41
60.0
 42
60.0
 43
60.0
 50
180.0
  0
MTEXT
  5
2A6
330
2A0
100
AcDbEntity
  8
0
 62
     0
100
AcDbMText
 10
1810.992139461812
 20
2588.72510525636
 30
0.0
 40
60.0
 41
0.0
 71
     5
 72
     1
  1
\A1;1078.0
1001
ACAD
1000
MTEXTBEGIN
1070
    73
1070
     1
1070
    44
1040
1.0
1070
    74
1070
     0
1000
MTEXTEND
  0
POINT
  5
2A7
330
2A0
100
AcDbEntity
  8
DEFPOINTS
 62
     0
100
AcDbPoint
 10
2349.992139461816
 20
2339.050893279102
 30
0.0
  0
POINT
  5
2A8
330
2A0
100
AcDbEntity
  8
DEFPOINTS
 62
     0
100
AcDbPoint
 10
1271.992139461809
 20
2339.050893279102
 30
0.0
  0
POINT
  5
2A9
330
2A0
100
AcDbEntity
  8
DEFPOINTS
 62
     0
100
AcDbPoint
 10
1271.992139461809
 20
2538.72510525636
 30
0.0
  0
ENDBLK
  5
2AB
330
2A0
100
AcDbEntity
  8
0
100
AcDbBlockEnd
  0
BLOCK
  5
318
330
30C
100
AcDbEntity
  8
0
100
AcDbBlockBegin
  2
*D12
 70
     1
 10
0.0
 20
0.0
 30
0.0
  3
*D12
  1

  0
LINE
  5
30D
330
30C
100
AcDbEntity
  8
0
 62
     0
100
AcDbLine
 10
1271.992139461809
 20
2339.050893279102
 30
0.0
 11
1271.992139461809
 21
2414.167060864822
 31
0.0
  0
LINE
  5
30E
330
30C
100
AcDbEntity
  8
0
 62
     0
100
AcDbLine
 10
1354.992139461725
 20
2339.050893279102
 30
0.0
 11
1354.992139461725
 21
2414.167060864822
 31
0.0
  0
LINE
  5
30F
330
30C
100
AcDbEntity
  8
0
 62
     0
100
AcDbLine
 10
1211.992139461809
 20
2414.167060864822
 30
0.0
 11
1151.992139461809
 21
2414.167060864822
 31
0.0
  0
LINE
  5
310
330
30C
100
AcDbEntity
  8
0
 62
     0
100
AcDbLine
 10
1414.992139461725
 20
2414.167060864822
 30
0.0
 11
1474.992139461725
 21
2414.167060864822
 31
0.0
  0
LINE
  5
311
330
30C
100
AcDbEntity
  8
0
 62
     0
100
AcDbLine
 10
1271.992139461809
 20
2414.167060864822
 30
0.0
 11
1354.992139461725
 21
2414.167060864822
 31
0.0
  0
INSERT
  5
312
330
30C
100
AcDbEntity
  8
0
 62
     0
100
AcDbBlockReference
  2
_OPEN
 10
1271.992139461809
 20
2414.167060864822
 30
0.0
 41
60.0
 42
60.0
 43
60.0
  0
INSERT
  5
313
330
30C
100
AcDbEntity
  8
0
 62
     0
100
AcDbBlockReference
  2
_OPEN
 10
1354.992139461725
 20
2414.167060864822
 30
0.0
 41
60.0
 42
60.0
 43
60.0
 50
180.0
  0
MTEXT
  5
314
330
30C
100
AcDbEntity
  8
0
 62
     0
100
AcDbMText
 10
1313.492139461767
 20
2464.167060864822
 30
0.0
 40
60.0
 41
0.0
 71
     5
 72
     1
  1
\A1;83.0
1001
ACAD
1000
MTEXTBEGIN
1070
    73
1070
     1
1070
    44
1040
1.0
1070
    74
1070
     0
1000
MTEXTEND
  0
POINT
  5
315
330
30C
100
AcDbEntity
  8
DEFPOINTS
 62
     0
100
AcDbPoint
 10
1271.992139461809
 20
2339.050893279102
 30
0.0
  0
POINT
  5
316
330
30C
100
AcDbEntity
  8
DEFPOINTS
 62
     0
100
AcDbPoint
 10
1354.992139461725
 20
2339.050893279102
 30
0.0
  0
POINT
  5
317
330
30C
100
AcDbEntity
  8
DEFPOINTS
 62
     0
100
AcDbPoint
 10
1354.992139461725
 20
2414.167060864822
 30
0.0
  0
ENDBLK
  5
319
330
30C
100
AcDbEntity
  8
0
100
AcDbBlockEnd
  0
BLOCK
  5
14F
330
143
100
AcDbEntity
  8
0
100
AcDbBlockBegin
  2
*D13
 70
     1
 10
0.0
 20
0.0
 30
0.0
  3
*D13
  1

  0
LINE
  5
144
330
143
100
AcDbEntity
  8
0
 62
     0
100
AcDbLine
 10
1354.992139461725
 20
1344.050893279181
 30
0.0
 11
1597.301361048161
 21
1344.050893279181
 31
0.0
  0
LINE
  5
145
330
143
100
AcDbEntity
  8
0
 62
     0
100
AcDbLine
 10
1354.99213946181
 20
1261.050893279098
 30
0.0
 11
1597.301361048161
 21
1261.050893279097
 31
0.0
  0
LINE
  5
146
330
143
100
AcDbEntity
  8
0
 62
     0
100
AcDbLine
 10
1597.301361048161
 20
1404.050893279181
 30
0.0
 11
1597.301361048161
 21
1464.050893279181
 31
0.0
  0
LINE
  5
147
330
143
100
AcDbEntity
  8
0
 62
     0
100
AcDbLine
 10
1597.301361048161
 20
1201.050893279097
 30
0.0
 11
1597.301361048161
 21
1141.050893279097
 31
0.0
  0
LINE
  5
148
330
143
100
AcDbEntity
  8
0
 62
     0
100
AcDbLine
 10
1597.301361048161
 20
1344.050893279181
 30
0.0
 11
1597.301361048161
 21
1261.050893279097
 31
0.0
  0
INSERT
  5
149
330
143
100
AcDbEntity
  8
0
 62
     0
100
AcDbBlockReference
  2
_OPEN
 10
1597.301361048161
 20
1344.050893279181
 30
0.0
 41
60.0
 42
60.0
 43
60.0
 50
270.0
  0
INSERT
  5
14A
330
143
100
AcDbEntity
  8
0
 62
     0
100
AcDbBlockReference
  2
_OPEN
 10
1597.301361048161
 20
1261.050893279097
 30
0.0
 41
60.0
 42
60.0
 43
60.0
 50
90.0
  0
MTEXT
  5
14B
330
143
100
AcDbEntity
  8
0
 62
     0
100
AcDbMText
 10
1547.301361048161
 20
1302.55089327914
 30
0.0
 40
60.0
 41
0.0
 71
     5
 72
     1
  1
\A1;83.0
 11
0.0000000000000001
 21
1.0
 31
0.0
1001
ACAD
1000
MTEXTBEGIN
1070
    73
1070
     1
1070
    44
1040
1.0
1070
    74
1070
     0
1000
MTEXTEND
  0
POINT
  5
14C
330
143
100
AcDbEntity
  8
DEFPOINTS
 62
     0
100
AcDbPoint
 10
1354.992139461725
 20
1344.050893279181
 30
0.0
  0
POINT
  5
14D
330
143
100
AcDbEntity
  8
DEFPOINTS
 62
     0
100
AcDbPoint
 10
1354.99213946181
 20
1261.050893279098
 30
0.0
  0
POINT
  5
14E
330
143
100
AcDbEntity
  8
DEFPOINTS
 62
     0
100
AcDbPoint
 10
1597.301361048161
 20
1261.050893279097
 30
0.0
  0
ENDBLK
  5
150
330
143
100
AcDbEntity
  8
0
100
AcDbBlockEnd
  0
BLOCK
  5
F2
330
E8
100
AcDbEntity
  8
0
100
AcDbBlockBegin
  2
*D14
 70
     1
 10
0.0
 20
0.0
 30
0.0
  3
*D14
  1

  0
LINE
  5
E9
330
E8
100
AcDbEntity
  8
0
 62
     0
100
AcDbLine
 10
2349.992139461816
 20
2339.050893279102
 30
0.0
 11
2488.764247940271
 21
2339.050893279102
 31
0.0
  0
LINE
  5
EA
330
E8
100
AcDbEntity
  8
0
 62
     0
100
AcDbLine
 10
2349.992139461817
 20
1261.050893279098
 30
0.0
 11
2488.764247940271
 21
1261.050893279098
 31
0.0
  0
LINE
  5
EB
330
E8
100
AcDbEntity
  8
0
 62
     0
100
AcDbLine
 10
2488.764247940271
 20
2279.050893279101
 30
0.0
 11
2488.764247940271
 21
1321.050893279098
 31
0.0
  0
INSERT
  5
EC
330
E8
100
AcDbEntity
  8
0
 62
     0
100
AcDbBlockReference
  2
_OPEN
 10
2488.764247940271
 20
2339.050893279102
 30
0.0
 41
60.0
 42
60.0
 43
60.0
 50
90.0
  0
INSERT
  5
ED
330
E8
100
AcDbEntity
  8
0
 62
     0
100
AcDbBlockReference
  2
_OPEN
 10
2488.764247940271
 20
1261.050893279098
 30
0.0
 41
60.0
 42
60.0
 43
60.0
 50
270.0
  0
MTEXT
  5
EE
330
E8
100
AcDbEntity
  8
0
 62
     0
100
AcDbMText
 10
2438.76424794027
 20
1800.0508932791
 30
0.0
 40
60.0
 41
0.0
 71
     5
 72
     1
  1
\A1;1078.0
 11
0.0000000000000001
 21
1.0
 31
0.0
1001
ACAD
1000
MTEXTBEGIN
1070
    73
1070
     1
1070
    44
1040
1.0
1070
    74
1070
     0
1000
MTEXTEND
  0
POINT
  5
EF
330
E8
100
AcDbEntity
  8
DEFPOINTS
 62
     0
100
AcDbPoint
 10
2349.992139461816
 20
2339.050893279102
 30
0.0
  0
POINT
  5
F0
330
E8
100
AcDbEntity
  8
DEFPOINTS
 62
     0
100
AcDbPoint
 10
2349.992139461817
 20
1261.050893279098
 30
0.0
  0
POINT
  5
F1
330
E8
100
AcDbEntity
  8
DEFPOINTS
 62
     0
100
AcDbPoint
 10
2488.764247940271
 20
1261.050893279098
 30
0.0
  0
ENDBLK
  5
F3
330
E8
100
AcDbEntity
  8
0
100
AcDbBlockEnd
  0
BLOCK
  5
E2
330
D8
100
AcDbEntity
  8
0
100
AcDbBlockBegin
  2
*D15
 70
     1
 10
0.0
 20
0.0
 30
0.0
  3
*D15
  1

  0
LINE
  5
D9
330
D8
100
AcDbEntity
  8
0
 62
     0
100
AcDbLine
 10
3045.389443034277
 20
1261.24151272467
 30
0.0
 11
2956.631443250561
 21
1261.24151272467
 31
0.0
  0
LINE
  5
DA
330
D8
100
AcDbEntity
  8
0
 62
     0
100
AcDbLine
 10
3045.389443034279
 20
2339.24151272467
 30
0.0
 11
2956.631443250561
 21
2339.24151272467
 31
0.0
  0
LINE
  5
DB
330
D8
100
AcDbEntity
  8
0
 62
     0
100
AcDbLine
 10
2956.631443250561
 20
1321.241512724671
 30
0.0
 11
2956.631443250561
 21
2279.24151272467
 31
0.0
  0
INSERT
  5
DC
330
D8
100
AcDbEntity
  8
0
 62
     0
100
AcDbBlockReference
  2
_OPEN
 10
2956.631443250561
 20
1261.24151272467
 30
0.0
 41
60.0
 42
60.0
 43
60.0
 50
270.0
  0
INSERT
  5
DD
330
D8
100
AcDbEntity
  8
0
 62
     0
100
AcDbBlockReference
  2
_OPEN
 10
2956.631443250561
 20
2339.24151272467
 30
0.0
 41
60.0
 42
60.0
 43
60.0
 50
90.0
  0
MTEXT
  5
DE
330
D8
100
AcDbEntity
  8
0
 62
     0
100
AcDbMText
 10
2906.63144325056
 20
1813.582093925658
 30
0.0
 40
60.0
 41
0.0
 71
     5
 72
     1
  1
\A1;1078.0
 11
0.0000000000000001
 21
1.0
 31
0.0
1001
ACAD
1000
MTEXTBEGIN
1070
    73
1070
     1
1070
    44
1040
1.0
1070
    74
1070
     0
1000
MTEXTEND
  0
POINT
  5
DF
330
D8
100
AcDbEntity
  8
DEFPOINTS
 62
     0
100
AcDbPoint
 10
3045.389443034277
 20
1261.24151272467
 30
0.0
  0
POINT
  5
E0
330
D8
100
AcDbEntity
  8
DEFPOINTS
 62
     0
100
AcDbPoint
 10
3045.389443034279
 20
2339.24151272467
 30
0.0
  0
POINT
  5
E1
330
D8
100
AcDbEntity
  8
DEFPOINTS
 62
     0
100
AcDbPoint
 10
2956.631443250561
 20
2339.24151272467
 30
0.0
  0
ENDBLK
  5
E3
330
D8
100
AcDbEntity
  8
0
100
AcDbBlockEnd
  0
BLOCK
  5
97
330
8D
100
AcDbEntity
  8
0
100
AcDbBlockBegin
  2
*D16
 70
     1
 10
0.0
 20
0.0
 30
0.0
  3
*D16
  1

  0
LINE
  5
8E
330
8D
100
AcDbEntity
  8
0
 62
     0
100
AcDbLine
 10
3235.38944303427
 20
1160.921008680701
 30
0.0
 11
3235.38944303427
 21
355.214063818058
 31
0.0
  0
LINE
  5
8F
330
8D
100
AcDbEntity
  8
0
 62
     0
100
AcDbLine
 10
4845.389443034281
 20
1146.706662909802
 30
0.0
 11
4845.389443034281
 21
355.214063818058
 31
0.0
  0
LINE
  5
90
330
8D
100
AcDbEntity
  8
0
 62
     0
100
AcDbLine
 10
3295.38944303427
 20
355.214063818058
 30
0.0
 11
4785.38944303428
 21
355.214063818058
 31
0.0
  0
INSERT
  5
91
330
8D
100
AcDbEntity
  8
0
 62
     0
100
AcDbBlockReference
  2
_OPEN
 10
3235.38944303427
 20
355.214063818058
 30
0.0
 41
60.0
 42
60.0
 43
60.0
 50
180.0
  0
INSERT
  5
92
330
8D
100
AcDbEntity
  8
0
 62
     0
100
AcDbBlockReference
  2
_OPEN
 10
4845.389443034281
 20
355.214063818058
 30
0.0
 41
60.0
 42
60.0
 43
60.0
  0
MTEXT
  5
93
330
8D
100
AcDbEntity
  8
0
 62
     0
100
AcDbMText
 10
4040.389443034275
 20
425.2140638180581
 30
0.0
 40
100.0
 41
0.0
 71
     5
 72
     1
  1
\A1;1610.0
1001
ACAD
1000
MTEXTBEGIN
1070
    73
1070
     1
1070
    44
1040
1.0
1070
    74
1070
     0
1000
MTEXTEND
  0
POINT
  5
94
330
8D
100
AcDbEntity
  8
DEFPOINTS
 62
     0
100
AcDbPoint
 10
3235.38944303427
 20
1160.921008680701
 30
0.0
  0
POINT
  5
95
330
8D
100
AcDbEntity
  8
DEFPOINTS
 62
     0
100
AcDbPoint
 10
4845.389443034281
 20
1146.706662909802
 30
0.0
  0
POINT
  5
96
330
8D
100
AcDbEntity
  8
DEFPOINTS
 62
     0
100
AcDbPoint
 10
4845.389443034281
 20
355.214063818058
 30
0.0
  0
ENDBLK
  5
98
330
8D
100
AcDbEntity
  8
0
100
AcDbBlockEnd
  0
BLOCK
  5
3D6
330
3D0
100
AcDbEntity
  8
0
100
AcDbBlockBegin
  2
*D17
 70
     1
 10
0.0
 20
0.0
 30
0.0
  3
*D17
  1

  0
LINE
  5
3D1
330
3D0
100
AcDbEntity
  8
0
 62
     0
100
AcDbLine
 10
4270.271917791808
 20
1518.055955037152
 30
0.0
 11
4634.644570571843
 21
1793.558598306016
 31
0.0
  0
MTEXT
  5
3D2
330
3D0
100
AcDbEntity
  8
0
 62
     0
100
AcDbMText
 10
4367.741670982332
 20
1654.436478620903
 30
0.0
 40
60.0
 41
0.0
 71
     5
 72
     1
  1
\A1;R805.0
 11
0.797657889312155
 21
0.6031101819883976
 31
0.0
1001
ACAD
1000
MTEXTBEGIN
1070
    73
1070
     1
1070
    44
1040
1.0
1070
    74
1070
     0
1000
MTEXTEND
  0
INSERT
  5
3D3
330
3D0
100
AcDbEntity
  8
0
 62
     0
100
AcDbBlockReference
  2
_OPEN
 10
4682.504043930572
 20
1829.74520922532
 30
0.0
 41
60.0
 42
60.0
 43
60.0
 50
37.09297428513864
  0
POINT
  5
3D4
330
3D0
100
AcDbEntity
  8
DEFPOINTS
 62
     0
100
AcDbPoint
 10
4682.504043930572
 20
1829.74520922532
 30
0.0
  0
POINT
  5
3D5
330
3D0
100
AcDbEntity
  8
DEFPOINTS
 62
     0
100
AcDbPoint
 10
4040.389443034285
 20
1344.241512724659
 30
0.0
  0
ENDBLK
  5
3D7
330
3D0
100
AcDbEntity
  8
0
100
AcDbBlockEnd
  0
BLOCK
  5
83
330
79
100
AcDbEntity
  8
0
100
AcDbBlockBegin
  2
*D18
 70
     1
 10
0.0
 20
0.0
 30
0.0
  3
*D18
  1

  0
LINE
  5
7A
330
79
100
AcDbEntity
  8
0
 62
     0
100
AcDbLine
 10
4123.389443034279
 20
2339.241512724667
 30
0.0
 11
4123.389443034279
 21
2538.72510525636
 31
0.0
  0
LINE
  5
7B
330
79
100
AcDbEntity
  8
0
 62
     0
100
AcDbLine
 10
3045.389443034279
 20
2339.24151272467
 30
0.0
 11
3045.389443034279
 21
2538.72510525636
 31
0.0
  0
LINE
  5
7C
330
79
100
AcDbEntity
  8
0
 62
     0
100
AcDbLine
 10
4063.389443034279
 20
2538.72510525636
 30
0.0
 11
3105.389443034279
 21
2538.72510525636
 31
0.0
  0
INSERT
  5
7D
330
79
100
AcDbEntity
  8
0
 62
     0
100
AcDbBlockReference
  2
_OPEN
 10
4123.389443034279
 20
2538.72510525636
 30
0.0
 41
60.0
 42
60.0
 43
60.0
  0
INSERT
  5
7E
330
79
100
AcDbEntity
  8
0
 62
     0
100
AcDbBlockReference
  2
_OPEN
 10
3045.389443034279
 20
2538.72510525636
 30
0.0
 41
60.0
 42
60.0
 43
60.0
 50
180.0
  0
MTEXT
  5
7F
330
79
100
AcDbEntity
  8
0
 62
     0
100
AcDbMText
 10
3584.443297481528
 20
2588.72510525636
 30
0.0
 40
60.0
 41
0.0
 71
     5
 72
     1
  1
\A1;1078.0
1001
ACAD
1000
MTEXTBEGIN
1070
    73
1070
     1
1070
    44
1040
1.0
1070
    74
1070
     0
1000
MTEXTEND
  0
POINT
  5
80
330
79
100
AcDbEntity
  8
DEFPOINTS
 62
     0
100
AcDbPoint
 10
4123.389443034279
 20
2339.241512724667
 30
0.0
  0
POINT
  5
81
330
79
100
AcDbEntity
  8
DEFPOINTS
 62
     0
100
AcDbPoint
 10
3045.389443034279
 20
2339.24151272467
 30
0.0
  0
POINT
  5
82
330
79
100
AcDbEntity
  8
DEFPOINTS
 62
     0
100
AcDbPoint
 10
3045.389443034279
 20
2538.72510525636
 30
0.0
  0
ENDBLK
  5
84
330
79
100
AcDbEntity
  8
0
100
AcDbBlockEnd
  0
BLOCK
  5
3CB
330
3C1
100
AcDbEntity
  8
0
100
AcDbBlockBegin
  2
*D19
 70
     1
 10
0.0
 20
0.0
 30
0.0
  3
*D19
  1

  0
LINE
  5
3C2
330
3C1
100
AcDbEntity
  8
0
 62
     0
100
AcDbLine
 10
4221.26233472941
 20
2149.241512724672
 30
0.0
 11
5040.802259671917
 21
2149.241512724672
 31
0.0
  0
LINE
  5
3C3
330
3C1
100
AcDbEntity
  8
0
 62
     0
100
AcDbLine
 10
4272.447369852488
 20
539.2415127246604
 30
0.0
 11
5040.802259671917
 21
539.2415127246602
 31
0.0
  0
LINE
  5
3C4
330
3C1
100
AcDbEntity
  8
0
 62
     0
100
AcDbLine
 10
5040.802259671917
 20
2089.241512724672
 30
0.0
 11
5040.802259671917
 21
599.2415127246601
 31
0.0
  0
INSERT
  5
3C5
330
3C1
100
AcDbEntity
  8
0
 62
     0
100
AcDbBlockReference
  2
_OPEN
 10
5040.802259671917
 20
2149.241512724672
 30
0.0
 41
60.0
 42
60.0
 43
60.0
 50
90.0
  0
INSERT
  5
3C6
330
3C1
100
AcDbEntity
  8
0
 62
     0
100
AcDbBlockReference
  2
_OPEN
 10
5040.802259671917
 20
539.2415127246602
 30
0.0
 41
60.0
 42
60.0
 43
60.0
 50
270.0
  0
MTEXT
  5
3C7
330
3C1
100
AcDbEntity
  8
0
 62
     0
100
AcDbMText
 10
4970.802259671916
 20
1344.241512724667
 30
0.0
 40
100.0
 41
0.0
 71
     5
 72
     1
  1
\A1;1610.0
 11
0.0000000000000001
 21
1.0
 31
0.0
1001
ACAD
1000
MTEXTBEGIN
1070
    73
1070
     1
1070
    44
1040
1.0
1070
    74
1070
     0
1000
MTEXTEND
  0
POINT
  5
3C8
330
3C1
100
AcDbEntity
  8
DEFPOINTS
 62
     0
100
AcDbPoint
 10
4221.26233472941
 20
2149.241512724672
 30
0.0
  0
POINT
  5
3C9
330
3C1
100
AcDbEntity
  8
DEFPOINTS
 62
     0
100
AcDbPoint
 10
4272.447369852488
 20
539.2415127246604
 30
0.0
  0
POINT
  5
3CA
330
3C1
100
AcDbEntity
  8
DEFPOINTS
 62
     0
100
AcDbPoint
 10
5040.802259671917
 20
539.2415127246602
 30
0.0
  0
ENDBLK
  5
3CC
330
3C1
100
AcDbEntity
  8
0
100
AcDbBlockEnd
  0
BLOCK
  5
6D
330
61
100
AcDbEntity
  8
0
100
AcDbBlockBegin
  2
*D20
 70
     1
 10
0.0
 20
0.0
 30
0.0
  3
*D20
  1

  0
LINE
  5
62
330
61
100
AcDbEntity
  8
0
 62
     0
100
AcDbLine
 10
4040.389443034282
 20
2189.241512724666
 30
0.0
 11
4040.389443034282
 21
2414.167060864822
 31
0.0
  0
LINE
  5
63
330
61
100
AcDbEntity
  8
0
 62
     0
100
AcDbLine
 10
4123.389443034279
 20
2189.241512724666
 30
0.0
 11
4123.389443034279
 21
2414.167060864822
 31
0.0
  0
LINE
  5
64
330
61
100
AcDbEntity
  8
0
 62
     0
100
AcDbLine
 10
3980.389443034283
 20
2414.167060864822
 30
0.0
 11
3920.389443034283
 21
2414.167060864822
 31
0.0
  0
LINE
  5
65
330
61
100
AcDbEntity
  8
0
 62
     0
100
AcDbLine
 10
4183.389443034278
 20
2414.167060864822
 30
0.0
 11
4243.389443034279
 21
2414.167060864822
 31
0.0
  0
LINE
  5
66
330
61
100
AcDbEntity
  8
0
 62
     0
100
AcDbLine
 10
4040.389443034282
 20
2414.167060864822
 30
0.0
 11
4123.389443034279
 21
2414.167060864822
 31
0.0
  0
INSERT
  5
67
330
61
100
AcDbEntity
  8
0
 62
     0
100
AcDbBlockReference
  2
_OPEN
 10
4040.389443034282
 20
2414.167060864822
 30
0.0
 41
60.0
 42
60.0
 43
60.0
  0
INSERT
  5
68
330
61
100
AcDbEntity
  8
0
 62
     0
100
AcDbBlockReference
  2
_OPEN
 10
4123.389443034279
 20
2414.167060864822
 30
0.0
 41
60.0
 42
60.0
 43
60.0
 50
180.0
  0
MTEXT
  5
69
330
61
100
AcDbEntity
  8
0
 62
     0
100
AcDbMText
 10
4081.88944303428
 20
2464.167060864822
 30
0.0
 40
60.0
 41
0.0
 71
     5
 72
     1
  1
\A1;83.0
1001
ACAD
1000
MTEXTBEGIN
1070
    73
1070
     1
1070
    44
1040
1.0
1070
    74
1070
     0
1000
MTEXTEND
  0
POINT
  5
6A
330
61
100
AcDbEntity
  8
DEFPOINTS
 62
     0
100
AcDbPoint
 10
4040.389443034282
 20
2189.241512724666
 30
0.0
  0
POINT
  5
6B
330
61
100
AcDbEntity
  8
DEFPOINTS
 62
     0
100
AcDbPoint
 10
4123.389443034279
 20
2189.241512724666
 30
0.0
  0
POINT
  5
6C
330
61
100
AcDbEntity
  8
DEFPOINTS
 62
     0
100
AcDbPoint
 10
4123.389443034279
 20
2414.167060864822
 30
0.0
  0
ENDBLK
  5
6E
330
61
100
AcDbEntity
  8
0
100
AcDbBlockEnd
  0
BLOCK
  5
5E
330
52
100
AcDbEntity
  8
0
100
AcDbBlockBegin
  2
*D21
 70
     1
 10
0.0
 20
0.0
 30
0.0
  3
*D21
  1

  0
LINE
  5
53
330
52
100
AcDbEntity
  8
0
 62
     0
100
AcDbLine
 10
4040.389443034282
 20
1344.241512724671
 30
0.0
 11
3842.524584108069
 21
1344.241512724671
 31
0.0
  0
LINE
  5
54
330
52
100
AcDbEntity
  8
0
 62
     0
100
AcDbLine
 10
4040.389443034277
 20
1261.241512724667
 30
0.0
 11
3842.524584108069
 21
1261.241512724667
 31
0.0
  0
LINE
  5
55
330
52
100
AcDbEntity
  8
0
 62
     0
100
AcDbLine
 10
3842.524584108069
 20
1404.241512724671
 30
0.0
 11
3842.524584108069
 21
1464.241512724671
 31
0.0
  0
LINE
  5
56
330
52
100
AcDbEntity
  8
0
 62
     0
100
AcDbLine
 10
3842.524584108069
 20
1201.241512724667
 30
0.0
 11
3842.524584108069
 21
1141.241512724667
 31
0.0
  0
LINE
  5
57
330
52
100
AcDbEntity
  8
0
 62
     0
100
AcDbLine
 10
3842.524584108069
 20
1344.241512724671
 30
0.0
 11
3842.524584108069
 21
1261.241512724667
 31
0.0
  0
INSERT
  5
58
330
52
100
AcDbEntity
  8
0
 62
     0
100
AcDbBlockReference
  2
_OPEN
 10
3842.524584108069
 20
1344.241512724671
 30
0.0
 41
60.0
 42
60.0
 43
60.0
 50
270.0
  0
INSERT
  5
59
330
52
100
AcDbEntity
  8
0
 62
     0
100
AcDbBlockReference
  2
_OPEN
 10
3842.524584108069
 20
1261.241512724667
 30
0.0
 41
60.0
 42
60.0
 43
60.0
 50
90.0
  0
MTEXT
  5
5A
330
52
100
AcDbEntity
  8
0
 62
     0
100
AcDbMText
 10
3792.524584108069
 20
1302.74151272467
 30
0.0
 40
60.0
 41
0.0
 71
     5
 72
     1
  1
\A1;83.0
 11
0.0000000000000001
 21
1.0
 31
0.0
1001
ACAD
1000
MTEXTBEGIN
1070
    73
1070
     1
1070
    44
1040
1.0
1070
    74
1070
     0
1000
MTEXTEND
  0
POINT
  5
5B
330
52
100
AcDbEntity
  8
DEFPOINTS
 62
     0
100
AcDbPoint
 10
4040.389443034282
 20
1344.241512724671
 30
0.0
  0
POINT
  5
5C
330
52
100
AcDbEntity
  8
DEFPOINTS
 62
     0
100
AcDbPoint
 10
4040.389443034277
 20
1261.241512724667
 30
0.0
  0
POINT
  5
5D
330
52
100
AcDbEntity
  8
DEFPOINTS
 62
     0
100
AcDbPoint
 10
3842.524584108069
 20
1261.241512724667
 30
0.0
  0
ENDBLK
  5
5F
330
52
100
AcDbEntity
  8
0
100
AcDbBlockEnd
  0
BLOCK
  5
D3
330
C9
100
AcDbEntity
  8
0
100
AcDbBlockBegin
  2
*D22
 70
     1
 10
0.0
 20
0.0
 30
0.0
  3
*D22
  1

  0
LINE
  5
CA
330
C9
100
AcDbEntity
  8
0
 62
     0
100
AcDbLine
 10
1143.719505912035
 20
2239.0508932791
 30
0.0
 11
303.0572547636529
 21
2239.0508932791
 31
0.0
  0
LINE
  5
CB
330
C9
100
AcDbEntity
  8
0
 62
     0
100
AcDbLine
 10
1113.111173765159
 20
449.0508932790885
 30
0.0
 11
303.0572547636525
 21
449.0508932790887
 31
0.0
  0
LINE
  5
CC
330
C9
100
AcDbEntity
  8
0
 62
     0
100
AcDbLine
 10
303.0572547636529
 20
2179.0508932791
 30
0.0
 11
303.0572547636525
 21
509.0508932790887
 31
0.0
  0
INSERT
  5
CD
330
C9
100
AcDbEntity
  8
0
 62
     0
100
AcDbBlockReference
  2
_OPEN
 10
303.0572547636529
 20
2239.0508932791
 30
0.0
 41
60.0
 42
60.0
 43
60.0
 50
90.0
  0
INSERT
  5
CE
330
C9
100
AcDbEntity
  8
0
 62
     0
100
AcDbBlockReference
  2
_OPEN
 10
303.0572547636525
 20
449.0508932790887
 30
0.0
 41
60.0
 42
60.0
 43
60.0
 50
270.0
  0
MTEXT
  5
CF
330
C9
100
AcDbEntity
  8
0
 62
     0
100
AcDbMText
 10
233.0572547636524
 20
1344.050893279094
 30
0.0
 40
100.0
 41
0.0
 71
     5
 72
     1
  1
\A1;1790.0
 11
0.0000000000000001
 21
1.0
 31
0.0
1001
ACAD
1000
MTEXTBEGIN
1070
    73
1070
     1
1070
    44
1040
1.0
1070
    74
1070
     0
1000
MTEXTEND
  0
POINT
  5
D0
330
C9
100
AcDbEntity
  8
DEFPOINTS
 62
     0
100
AcDbPoint
 10
1143.719505912035
 20
2239.0508932791
 30
0.0
  0
POINT
  5
D1
330
C9
100
AcDbEntity
  8
DEFPOINTS
 62
     0
100
AcDbPoint
 10
1113.111173765159
 20
449.0508932790885
 30
0.0
  0
POINT
  5
D2
330
C9
100
AcDbEntity
  8
DEFPOINTS
 62
     0
100
AcDbPoint
 10
303.0572547636525
 20
449.0508932790887
 30
0.0
  0
ENDBLK
  5
D4
330
C9
100
AcDbEntity
  8
0
100
AcDbBlockEnd
  0
BLOCK
  5
135
330
12B
100
AcDbEntity
  8
0
100
AcDbBlockBegin
  2
*D23
 70
     1
 10
0.0
 20
0.0
 30
0.0
  3
*D23
  1

  0
LINE
  5
12C
330
12B
100
AcDbEntity
  8
0
 62
     0
100
AcDbLine
 10
528.172031583993
 20
-1417.068948796159
 30
0.0
 11
528.172031583993
 21
-2252.789044377323
 31
0.0
  0
LINE
  5
12D
330
12B
100
AcDbEntity
  8
0
 62
     0
100
AcDbLine
 10
2201.772054679173
 20
-1404.394493826699
 30
0.0
 11
2201.772054679173
 21
-2252.789044377323
 31
0.0
  0
LINE
  5
12E
330
12B
100
AcDbEntity
  8
0
 62
     0
100
AcDbLine
 10
588.1720315839929
 20
-2252.789044377323
 30
0.0
 11
2141.772054679173
 21
-2252.789044377323
 31
0.0
  0
INSERT
  5
12F
330
12B
100
AcDbEntity
  8
0
 62
     0
100
AcDbBlockReference
  2
_OPEN
 10
528.172031583993
 20
-2252.789044377323
 30
0.0
 41
60.0
 42
60.0
 43
60.0
 50
180.0
  0
INSERT
  5
130
330
12B
100
AcDbEntity
  8
0
 62
     0
100
AcDbBlockReference
  2
_OPEN
 10
2201.772054679173
 20
-2252.789044377323
 30
0.0
 41
60.0
 42
60.0
 43
60.0
  0
MTEXT
  5
131
330
12B
100
AcDbEntity
  8
0
 62
     0
100
AcDbMText
 10
1364.972043131583
 20
-2182.789044377323
 30
0.0
 40
100.0
 41
0.0
 71
     5
 72
     1
  1
\A1;1673.6
1001
ACAD
1000
MTEXTBEGIN
1070
    73
1070
     1
1070
    44
1040
1.0
1070
    74
1070
     0
1000
MTEXTEND
  0
POINT
  5
132
330
12B
100
AcDbEntity
  8
DEFPOINTS
 62
     0
100
AcDbPoint
 10
528.172031583993
 20
-1417.068948796159
 30
0.0
  0
POINT
  5
133
330
12B
100
AcDbEntity
  8
DEFPOINTS
 62
     0
100
AcDbPoint
 10
2201.772054679173
 20
-1404.394493826699
 30
0.0
  0
POINT
  5
134
330
12B
100
AcDbEntity
  8
DEFPOINTS
 62
     0
100
AcDbPoint
 10
2201.772054679173
 20
-2252.789044377323
 30
0.0
  0
ENDBLK
  5
136
330
12B
100
AcDbEntity
  8
0
100
AcDbBlockEnd
  0
BLOCK
  5
178
330
172
100
AcDbEntity
  8
0
100
AcDbBlockBegin
  2
*D24
 70
     1
 10
0.0
 20
0.0
 30
0.0
  3
*D24
  1

  0
LINE
  5
173
330
172
100
AcDbEntity
  8
0
 62
     0
100
AcDbLine
 10
1130.492121627318
 20
-1066.512039397596
 30
0.0
 11
739.7354395558511
 21
-778.4149429011915
 31
0.0
  0
MTEXT
  5
174
330
172
100
AcDbEntity
  8
0
 62
     0
100
AcDbMText
 10
1023.332623531122
 20
-925.3849974539226
 30
0.0
 40
60.0
 41
0.0
 71
     5
 72
     1
  1
\A1;R836.8
 11
0.8048874768642349
 21
-0.5934274594144812
 31
0.0
1001
ACAD
1000
MTEXTBEGIN
1070
    73
1070
     1
1070
    44
1040
1.0
1070
    74
1070
     0
1000
MTEXTEND
  0
INSERT
  5
175
330
172
100
AcDbEntity
  8
0
 62
     0
100
AcDbBlockReference
  2
_OPEN
 10
691.442190943997
 20
-742.8092953363227
 30
0.0
 41
60.0
 42
60.0
 43
60.0
 50
143.5993897483041
  0
POINT
  5
176
330
172
100
AcDbEntity
  8
DEFPOINTS
 62
     0
100
AcDbPoint
 10
691.442190943997
 20
-742.8092953363227
 30
0.0
  0
POINT
  5
177
330
172
100
AcDbEntity
  8
DEFPOINTS
 62
     0
100
AcDbPoint
 10
1364.972031583989
 20
-1239.389393374361
 30
0.0
  0
ENDBLK
  5
179
330
172
100
AcDbEntity
  8
0
100
AcDbBlockEnd
  0
BLOCK
  5
1D7
330
1CB
100
AcDbEntity
  8
0
100
AcDbBlockBegin
  2
*D25
 70
     1
 10
0.0
 20
0.0
 30
0.0
  3
*D25
  1

  0
LINE
  5
1CC
330
1CB
100
AcDbEntity
  8
0
 62
     0
100
AcDbLine
 10
1364.972271372242
 20
-394.3891603968932
 30
0.0
 11
1364.972271372242
 21
-299.7554292833829
 31
0.0
  0
LINE
  5
1CD
330
1CB
100
AcDbEntity
  8
0
 62
     0
100
AcDbLine
 10
1309.972271372216
 20
-329.3891603968859
 30
0.0
 11
1309.972271372216
 21
-299.7554292833829
 31
0.0
  0
LINE
  5
1CE
330
1CB
100
AcDbEntity
  8
0
 62
     0
100
AcDbLine
 10
1424.972271372242
 20
-299.7554292833829
 30
0.0
 11
1484.972271372242
 21
-299.7554292833829
 31
0.0
  0
LINE
  5
1CF
330
1CB
100
AcDbEntity
  8
0
 62
     0
100
AcDbLine
 10
1249.972271372216
 20
-299.7554292833829
 30
0.0
 11
1189.972271372216
 21
-299.7554292833829
 31
0.0
  0
LINE
  5
1D0
330
1CB
100
AcDbEntity
  8
0
 62
     0
100
AcDbLine
 10
1364.972271372242
 20
-299.7554292833829
 30
0.0
 11
1309.972271372216
 21
-299.7554292833829
 31
0.0
  0
INSERT
  5
1D1
330
1CB
100
AcDbEntity
  8
0
 62
     0
100
AcDbBlockReference
  2
_OPEN
 10
1364.972271372242
 20
-299.7554292833829
 30
0.0
 41
60.0
 42
60.0
 43
60.0
 50
180.0
  0
INSERT
  5
1D2
330
1CB
100
AcDbEntity
  8
0
 62
     0
100
AcDbBlockReference
  2
_OPEN
 10
1309.972271372216
 20
-299.7554292833829
 30
0.0
 41
60.0
 42
60.0
 43
60.0
  0
MTEXT
  5
1D3
330
1CB
100
AcDbEntity
  8
0
 62
     0
100
AcDbMText
 10
1337.472271372229
 20
-249.7554292833829
 30
0.0
 40
60.0
 41
0.0
 71
     5
 72
     1
  1
\A1;55.0
1001
ACAD
1000
MTEXTBEGIN
1070
    73
1070
     1
1070
    44
1040
1.0
1070
    74
1070
     0
1000
MTEXTEND
  0
POINT
  5
1D4
330
1CB
100
AcDbEntity
  8
DEFPOINTS
 62
     0
100
AcDbPoint
 10
1364.972271372242
 20
-394.3891603968932
 30
0.0
  0
POINT
  5
1D5
330
1CB
100
AcDbEntity
  8
DEFPOINTS
 62
     0
100
AcDbPoint
 10
1309.972271372216
 20
-329.3891603968859
 30
0.0
  0
POINT
  5
1D6
330
1CB
100
AcDbEntity
  8
DEFPOINTS
 62
     0
100
AcDbPoint
 10
1309.972271372216
 20
-299.7554292833829
 30
0.0
  0
ENDBLK
  5
1D8
330
1CB
100
AcDbEntity
  8
0
100
AcDbBlockEnd
  0
BLOCK
  5
122
330
116
100
AcDbEntity
  8
0
100
AcDbBlockBegin
  2
*D26
 70
     1
 10
0.0
 20
0.0
 30
0.0
  3
*D26
  1

  0
LINE
  5
117
330
116
100
AcDbEntity
  8
0
 62
     0
100
AcDbLine
 10
1364.972271372242
 20
-1239.389160396886
 30
0.0
 11
1583.685579383258
 21
-1239.389160396886
 31
0.0
  0
LINE
  5
118
330
116
100
AcDbEntity
  8
0
 62
     0
100
AcDbLine
 10
1364.631123523882
 20
-1294.389160396885
 30
0.0
 11
1583.685579383258
 21
-1294.389160396886
 31
0.0
  0
LINE
  5
119
330
116
100
AcDbEntity
  8
0
 62
     0
100
AcDbLine
 10
1583.685579383258
 20
-1179.389160396886
 30
0.0
 11
1583.685579383258
 21
-1119.389160396886
 31
0.0
  0
LINE
  5
11A
330
116
100
AcDbEntity
  8
0
 62
     0
100
AcDbLine
 10
1583.685579383258
 20
-1354.389160396886
 30
0.0
 11
1583.685579383258
 21
-1414.389160396886
 31
0.0
  0
LINE
  5
11B
330
116
100
AcDbEntity
  8
0
 62
     0
100
AcDbLine
 10
1583.685579383258
 20
-1239.389160396886
 30
0.0
 11
1583.685579383258
 21
-1294.389160396886
 31
0.0
  0
INSERT
  5
11C
330
116
100
AcDbEntity
  8
0
 62
     0
100
AcDbBlockReference
  2
_OPEN
 10
1583.685579383258
 20
-1239.389160396886
 30
0.0
 41
60.0
 42
60.0
 43
60.0
 50
270.0
  0
INSERT
  5
11D
330
116
100
AcDbEntity
  8
0
 62
     0
100
AcDbBlockReference
  2
_OPEN
 10
1583.685579383258
 20
-1294.389160396886
 30
0.0
 41
60.0
 42
60.0
 43
60.0
 50
90.0
  0
MTEXT
  5
11E
330
116
100
AcDbEntity
  8
0
 62
     0
100
AcDbMText
 10
1533.685579383258
 20
-1266.889160396885
 30
0.0
 40
60.0
 41
0.0
 71
     5
 72
     1
  1
\A1;55.0
 11
0.0000000000000001
 21
1.0
 31
0.0
1001
ACAD
1000
MTEXTBEGIN
1070
    73
1070
     1
1070
    44
1040
1.0
1070
    74
1070
     0
1000
MTEXTEND
  0
POINT
  5
11F
330
116
100
AcDbEntity
  8
DEFPOINTS
 62
     0
100
AcDbPoint
 10
1364.972271372242
 20
-1239.389160396886
 30
0.0
  0
POINT
  5
120
330
116
100
AcDbEntity
  8
DEFPOINTS
 62
     0
100
AcDbPoint
 10
1364.631123523882
 20
-1294.389160396885
 30
0.0
  0
POINT
  5
121
330
116
100
AcDbEntity
  8
DEFPOINTS
 62
     0
100
AcDbPoint
 10
1583.685579383258
 20
-1294.389160396886
 30
0.0
  0
ENDBLK
  5
123
330
116
100
AcDbEntity
  8
0
100
AcDbBlockEnd
  0
BLOCK
  5
169
330
15F
100
AcDbEntity
  8
0
100
AcDbBlockBegin
  2
*D27
 70
     1
 10
0.0
 20
0.0
 30
0.0
  3
*D27
  1

  0
LINE
  5
160
330
15F
100
AcDbEntity
  8
0
 62
     0
100
AcDbLine
 10
1201.722311123336
 20
-402.5893770900929
 30
0.0
 11
377.9082563896666
 21
-402.5893770900927
 31
0.0
  0
LINE
  5
161
330
15F
100
AcDbEntity
  8
0
 62
     0
100
AcDbLine
 10
1211.23065098653
 20
-2076.189393374358
 30
0.0
 11
377.9082563896663
 21
-2076.189393374357
 31
0.0
  0
LINE
  5
162
330
15F
100
AcDbEntity
  8
0
 62
     0
100
AcDbLine
 10
377.9082563896666
 20
-462.5893770900926
 30
0.0
 11
377.9082563896663
 21
-2016.189393374357
 31
0.0
  0
INSERT
  5
163
330
15F
100
AcDbEntity
  8
0
 62
     0
100
AcDbBlockReference
  2
_OPEN
 10
377.9082563896666
 20
-402.5893770900927
 30
0.0
 41
60.0
 42
60.0
 43
60.0
 50
90.0
  0
INSERT
  5
164
330
15F
100
AcDbEntity
  8
0
 62
     0
100
AcDbBlockReference
  2
_OPEN
 10
377.9082563896663
 20
-2076.189393374357
 30
0.0
 41
60.0
 42
60.0
 43
60.0
 50
270.0
  0
MTEXT
  5
165
330
15F
100
AcDbEntity
  8
0
 62
     0
100
AcDbMText
 10
307.9082563896667
 20
-1239.389385232225
 30
0.0
 40
100.0
 41
0.0
 71
     5
 72
     1
  1
\A1;1673.6
 11
0.0000000000000001
 21
1.0
 31
0.0
1001
ACAD
1000
MTEXTBEGIN
1070
    73
1070
     1
1070
    44
1040
1.0
1070
    74
1070
     0
1000
MTEXTEND
  0
POINT
  5
166
330
15F
100
AcDbEntity
  8
DEFPOINTS
 62
     0
100
AcDbPoint
 10
1201.722311123336
 20
-402.5893770900929
 30
0.0
  0
POINT
  5
167
330
15F
100
AcDbEntity
  8
DEFPOINTS
 62
     0
100
AcDbPoint
 10
1211.23065098653
 20
-2076.189393374358
 30
0.0
  0
POINT
  5
168
330
15F
100
AcDbEntity
  8
DEFPOINTS
 62
     0
100
AcDbPoint
 10
377.9082563896663
 20
-2076.189393374357
 30
0.0
  0
ENDBLK
  5
16A
330
15F
100
AcDbEntity
  8
0
100
AcDbBlockEnd
  0
BLOCK
  5
202
330
1F8
100
AcDbEntity
  8
0
100
AcDbBlockBegin
  2
*D28
 70
     1
 10
0.0
 20
0.0
 30
0.0
  3
*D28
  1

  0
LINE
  5
1F9
330
1F8
100
AcDbEntity
  8
0
 62
     0
100
AcDbLine
 10
2274.972271372216
 20
-329.3891603968863
 30
0.0
 11
2425.596148202443
 21
-329.3891603968863
 31
0.0
  0
LINE
  5
1FA
330
1F8
100
AcDbEntity
  8
0
 62
     0
100
AcDbLine
 10
2274.972271372217
 20
-1294.389160396885
 30
0.0
 11
2425.596148202443
 21
-1294.389160396885
 31
0.0
  0
LINE
  5
1FB
330
1F8
100
AcDbEntity
  8
0
 62
     0
100
AcDbLine
 10
2425.596148202443
 20
-389.3891603968863
 30
0.0
 11
2425.596148202443
 21
-1234.389160396886
 31
0.0
  0
INSERT
  5
1FC
330
1F8
100
AcDbEntity
  8
0
 62
     0
100
AcDbBlockReference
  2
_OPEN
 10
2425.596148202443
 20
-329.3891603968863
 30
0.0
 41
60.0
 42
60.0
 43
60.0
 50
90.0
  0
INSERT
  5
1FD
330
1F8
100
AcDbEntity
  8
0
 62
     0
100
AcDbBlockReference
  2
_OPEN
 10
2425.596148202443
 20
-1294.389160396885
 30
0.0
 41
60.0
 42
60.0
 43
60.0
 50
270.0
  0
MTEXT
  5
1FE
330
1F8
100
AcDbEntity
  8
0
 62
     0
100
AcDbMText
 10
2375.596148202443
 20
-811.8891603968858
 30
0.0
 40
60.0
 41
0.0
 71
     5
 72
     1
  1
\A1;965.0
 11
0.0000000000000001
 21
1.0
 31
0.0
1001
ACAD
1000
MTEXTBEGIN
1070
    73
1070
     1
1070
    44
1040
1.0
1070
    74
1070
     0
1000
MTEXTEND
  0
POINT
  5
1FF
330
1F8
100
AcDbEntity
  8
DEFPOINTS
 62
     0
100
AcDbPoint
 10
2274.972271372216
 20
-329.3891603968863
 30
0.0
  0
POINT
  5
200
330
1F8
100
AcDbEntity
  8
DEFPOINTS
 62
     0
100
AcDbPoint
 10
2274.972271372217
 20
-1294.389160396885
 30
0.0
  0
POINT
  5
201
330
1F8
100
AcDbEntity
  8
DEFPOINTS
 62
     0
100
AcDbPoint
 10
2425.596148202443
 20
-1294.389160396885
 30
0.0
  0
ENDBLK
  5
203
330
1F8
100
AcDbEntity
  8
0
100
AcDbBlockEnd
  0
BLOCK
  5
111
330
107
100
AcDbEntity
  8
0
100
AcDbBlockBegin
  2
*D29
 70
     1
 10
0.0
 20
0.0
 30
0.0
  3
*D29
  1

  0
LINE
  5
108
330
107
100
AcDbEntity
  8
0
 62
     0
100
AcDbLine
 10
1309.972271372216
 20
-329.3891603968859
 30
0.0
 11
1309.972271372216
 21
-171.4490348907002
 31
0.0
  0
LINE
  5
109
330
107
100
AcDbEntity
  8
0
 62
     0
100
AcDbLine
 10
2274.972271372216
 20
-329.3891603968863
 30
0.0
 11
2274.972271372216
 21
-171.4490348907002
 31
0.0
  0
LINE
  5
10A
330
107
100
AcDbEntity
  8
0
 62
     0
100
AcDbLine
 10
1369.972271372216
 20
-171.4490348907002
 30
0.0
 11
2214.972271372216
 21
-171.4490348907002
 31
0.0
  0
INSERT
  5
10B
330
107
100
AcDbEntity
  8
0
 62
     0
100
AcDbBlockReference
  2
_OPEN
 10
1309.972271372216
 20
-171.4490348907002
 30
0.0
 41
60.0
 42
60.0
 43
60.0
 50
180.0
  0
INSERT
  5
10C
330
107
100
AcDbEntity
  8
0
 62
     0
100
AcDbBlockReference
  2
_OPEN
 10
2274.972271372216
 20
-171.4490348907002
 30
0.0
 41
60.0
 42
60.0
 43
60.0
  0
MTEXT
  5
10D
330
107
100
AcDbEntity
  8
0
 62
     0
100
AcDbMText
 10
1792.472271372217
 20
-121.4490348907002
 30
0.0
 40
60.0
 41
0.0
 71
     5
 72
     1
  1
\A1;965.0
1001
ACAD
1000
MTEXTBEGIN
1070
    73
1070
     1
1070
    44
1040
1.0
1070
    74
1070
     0
1000
MTEXTEND
  0
POINT
  5
10E
330
107
100
AcDbEntity
  8
DEFPOINTS
 62
     0
100
AcDbPoint
 10
1309.972271372216
 20
-329.3891603968859
 30
0.0
  0
POINT
  5
10F
330
107
100
AcDbEntity
  8
DEFPOINTS
 62
     0
100
AcDbPoint
 10
2274.972271372216
 20
-329.3891603968863
 30
0.0
  0
POINT
  5
110
330
107
100
AcDbEntity
  8
DEFPOINTS
 62
     0
100
AcDbPoint
 10
2274.972271372216
 20
-171.4490348907002
 30
0.0
  0
ENDBLK
  5
112
330
107
100
AcDbEntity
  8
0
100
AcDbBlockEnd
  0
BLOCK
  5
29B
330
28F
100
AcDbEntity
  8
0
100
AcDbBlockBegin
  2
*D30
 70
     1
 10
0.0
 20
0.0
 30
0.0
  3
*D30
  1

  0
LINE
  5
290
330
28F
100
AcDbEntity
  8
0
 62
     0
100
AcDbLine
 10
1376.58177053017
 20
3973.347399264344
 30
0.0
 11
1641.733872976445
 21
3973.347399264344
 31
0.0
  0
LINE
  5
291
330
28F
100
AcDbEntity
  8
0
 62
     0
100
AcDbLine
 10
1747.433090557879
 20
3933.368674500982
 30
0.0
 11
1641.733872976445
 21
3933.368674500982
 31
0.0
  0
LINE
  5
292
330
28F
100
AcDbEntity
  8
0
 62
     0
100
AcDbLine
 10
1641.733872976445
 20
4033.347399264345
 30
0.0
 11
1641.733872976445
 21
4093.347399264344
 31
0.0
  0
LINE
  5
293
330
28F
100
AcDbEntity
  8
0
 62
     0
100
AcDbLine
 10
1641.733872976445
 20
3873.368674500982
 30
0.0
 11
1641.733872976445
 21
3813.368674500981
 31
0.0
  0
LINE
  5
294
330
28F
100
AcDbEntity
  8
0
 62
     0
100
AcDbLine
 10
1641.733872976445
 20
3973.347399264344
 30
0.0
 11
1641.733872976445
 21
3933.368674500982
 31
0.0
  0
INSERT
  5
295
330
28F
100
AcDbEntity
  8
0
 62
     0
100
AcDbBlockReference
  2
_OPEN
 10
1641.733872976445
 20
3973.347399264344
 30
0.0
 41
60.0
 42
60.0
 43
60.0
 50
270.0
  0
INSERT
  5
296
330
28F
100
AcDbEntity
  8
0
 62
     0
100
AcDbBlockReference
  2
_OPEN
 10
1641.733872976445
 20
3933.368674500982
 30
0.0
 41
60.0
 42
60.0
 43
60.0
 50
90.0
  0
MTEXT
  5
297
330
28F
100
AcDbEntity
  8
0
 62
     0
100
AcDbMText
 10
1591.733872976444
 20
3953.358036882664
 30
0.0
 40
60.0
 41
0.0
 71
     5
 72
     1
  1
\A1;40.0
 11
0.0000000000000001
 21
1.0
 31
0.0
1001
ACAD
1000
MTEXTBEGIN
1070
    73
1070
     1
1070
    44
1040
1.0
1070
    74
1070
     0
1000
MTEXTEND
  0
POINT
  5
298
330
28F
100
AcDbEntity
  8
DEFPOINTS
 62
     0
100
AcDbPoint
 10
1376.58177053017
 20
3973.347399264344
 30
0.0
  0
POINT
  5
299
330
28F
100
AcDbEntity
  8
DEFPOINTS
 62
     0
100
AcDbPoint
 10
1747.433090557879
 20
3933.368674500982
 30
0.0
  0
POINT
  5
29A
330
28F
100
AcDbEntity
  8
DEFPOINTS
 62
     0
100
AcDbPoint
 10
1641.733872976445
 20
3933.368674500982
 30
0.0
  0
ENDBLK
  5
29C
330
28F
100
AcDbEntity
  8
0
100
AcDbBlockEnd
  0
BLOCK
  5
28C
330
280
100
AcDbEntity
  8
0
100
AcDbBlockBegin
  2
*D31
 70
     1
 10
0.0
 20
0.0
 30
0.0
  3
*D31
  1

  0
LINE
  5
281
330
280
100
AcDbEntity
  8
0
 62
     0
100
AcDbLine
 10
1336.603045766805
 20
4968.347399264349
 30
0.0
 11
1336.603045766805
 21
5004.144589783267
 31
0.0
  0
LINE
  5
282
330
280
100
AcDbEntity
  8
0
 62
     0
100
AcDbLine
 10
1376.418482893368
 20
4918.347399264348
 30
0.0
 11
1376.418482893368
 21
5004.144589783267
 31
0.0
  0
LINE
  5
283
330
280
100
AcDbEntity
  8
0
 62
     0
100
AcDbLine
 10
1276.603045766805
 20
5004.144589783267
 30
0.0
 11
1216.603045766805
 21
5004.144589783267
 31
0.0
  0
LINE
  5
284
330
280
100
AcDbEntity
  8
0
 62
     0
100
AcDbLine
 10
1436.418482893368
 20
5004.144589783267
 30
0.0
 11
1496.418482893368
 21
5004.144589783267
 31
0.0
  0
LINE
  5
285
330
280
100
AcDbEntity
  8
0
 62
     0
100
AcDbLine
 10
1336.603045766805
 20
5004.144589783267
 30
0.0
 11
1376.418482893368
 21
5004.144589783267
 31
0.0
  0
INSERT
  5
286
330
280
100
AcDbEntity
  8
0
 62
     0
100
AcDbBlockReference
  2
_OPEN
 10
1336.603045766805
 20
5004.144589783267
 30
0.0
 41
60.0
 42
60.0
 43
60.0
  0
INSERT
  5
287
330
280
100
AcDbEntity
  8
0
 62
     0
100
AcDbBlockReference
  2
_OPEN
 10
1376.418482893368
 20
5004.144589783267
 30
0.0
 41
60.0
 42
60.0
 43
60.0
 50
180.0
  0
MTEXT
  5
288
330
280
100
AcDbEntity
  8
0
 62
     0
100
AcDbMText
 10
1356.510764330087
 20
5054.144589783267
 30
0.0
 40
60.0
 41
0.0
 71
     5
 72
     1
  1
\A1;40.0
1001
ACAD
1000
MTEXTBEGIN
1070
    73
1070
     1
1070
    44
1040
1.0
1070
    74
1070
     0
1000
MTEXTEND
  0
POINT
  5
289
330
280
100
AcDbEntity
  8
DEFPOINTS
 62
     0
100
AcDbPoint
 10
1336.603045766805
 20
4968.347399264349
 30
0.0
  0
POINT
  5
28A
330
280
100
AcDbEntity
  8
DEFPOINTS
 62
     0
100
AcDbPoint
 10
1376.418482893368
 20
4918.347399264348
 30
0.0
  0
POINT
  5
28B
330
280
100
AcDbEntity
  8
DEFPOINTS
 62
     0
100
AcDbPoint
 10
1376.418482893368
 20
5004.144589783267
 30
0.0
  0
ENDBLK
  5
28D
330
280
100
AcDbEntity
  8
0
100
AcDbBlockEnd
  0
BLOCK
  5
2D9
330
2D3
100
AcDbEntity
  8
0
100
AcDbBlockBegin
  2
*D32
 70
     1
 10
0.0
 20
0.0
 30
0.0
  3
*D32
  1

  0
LINE
  5
2D4
330
2D3
100
AcDbEntity
  8
0
 62
     0
100
AcDbLine
 10
1198.680733458526
 20
4184.590844743115
 30
0.0
 11
838.7075139862066
 21
4612.030641683687
 31
0.0
  0
MTEXT
  5
2D5
330
2D3
100
AcDbEntity
  8
0
 62
     0
100
AcDbMText
 10
1130.638709256387
 20
4343.00575231963
 30
0.0
 40
60.0
 41
0.0
 71
     5
 72
     1
  1
\A1;R895.0
 11
0.6441607862801898
 21
-0.7648901106818467
 31
0.0
1001
ACAD
1000
MTEXTBEGIN
1070
    73
1070
     1
1070
    44
1040
1.0
1070
    74
1070
     0
1000
MTEXTEND
  0
INSERT
  5
2D6
330
2D3
100
AcDbEntity
  8
0
 62
     0
100
AcDbBlockReference
  2
_OPEN
 10
800.057866809395
 20
4657.924048324598
 30
0.0
 41
60.0
 42
60.0
 43
60.0
 50
130.1027832340027
  0
POINT
  5
2D7
330
2D3
100
AcDbEntity
  8
DEFPOINTS
 62
     0
100
AcDbPoint
 10
800.057866809395
 20
4657.924048324598
 30
0.0
  0
POINT
  5
2D8
330
2D3
100
AcDbEntity
  8
DEFPOINTS
 62
     0
100
AcDbPoint
 10
1376.581770530166
 20
3973.347399264344
 30
0.0
  0
ENDBLK
  5
2DA
330
2D3
100
AcDbEntity
  8
0
100
AcDbBlockEnd
  0
BLOCK
  5
354
330
348
100
AcDbEntity
  8
0
100
AcDbBlockBegin
  2
*D33
 70
     1
 10
0.0
 20
0.0
 30
0.0
  3
*D33
  1

  0
LINE
  5
349
330
348
100
AcDbEntity
  8
0
 62
     0
100
AcDbLine
 10
3943.88392999826
 20
3950.051691068642
 30
0.0
 11
3728.421631316006
 21
3950.051691068642
 31
0.0
  0
LINE
  5
34A
330
348
100
AcDbEntity
  8
0
 62
     0
100
AcDbLine
 10
3573.03260997054
 20
3910.072966305277
 30
0.0
 11
3728.421631316006
 21
3910.072966305277
 31
0.0
  0
LINE
  5
34B
330
348
100
AcDbEntity
  8
0
 62
     0
100
AcDbLine
 10
3728.421631316006
 20
4010.051691068642
 30
0.0
 11
3728.421631316006
 21
4070.051691068641
 31
0.0
  0
LINE
  5
34C
330
348
100
AcDbEntity
  8
0
 62
     0
100
AcDbLine
 10
3728.421631316006
 20
3850.072966305277
 30
0.0
 11
3728.421631316006
 21
3790.072966305277
 31
0.0
  0
LINE
  5
34D
330
348
100
AcDbEntity
  8
0
 62
     0
100
AcDbLine
 10
3728.421631316006
 20
3950.051691068642
 30
0.0
 11
3728.421631316006
 21
3910.072966305277
 31
0.0
  0
INSERT
  5
34E
330
348
100
AcDbEntity
  8
0
 62
     0
100
AcDbBlockReference
  2
_OPEN
 10
3728.421631316006
 20
3950.051691068642
 30
0.0
 41
60.0
 42
60.0
 43
60.0
 50
270.0
  0
INSERT
  5
34F
330
348
100
AcDbEntity
  8
0
 62
     0
100
AcDbBlockReference
  2
_OPEN
 10
3728.421631316006
 20
3910.072966305277
 30
0.0
 41
60.0
 42
60.0
 43
60.0
 50
90.0
  0
MTEXT
  5
350
330
348
100
AcDbEntity
  8
0
 62
     0
100
AcDbMText
 10
3678.421631316006
 20
3930.06232868696
 30
0.0
 40
60.0
 41
0.0
 71
     5
 72
     1
  1
\A1;40.0
 11
0.0000000000000001
 21
1.0
 31
0.0
1001
ACAD
1000
MTEXTBEGIN
1070
    73
1070
     1
1070
    44
1040
1.0
1070
    74
1070
     0
1000
MTEXTEND
  0
POINT
  5
351
330
348
100
AcDbEntity
  8
DEFPOINTS
 62
     0
100
AcDbPoint
 10
3943.88392999826
 20
3950.051691068642
 30
0.0
  0
POINT
  5
352
330
348
100
AcDbEntity
  8
DEFPOINTS
 62
     0
100
AcDbPoint
 10
3573.03260997054
 20
3910.072966305277
 30
0.0
  0
POINT
  5
353
330
348
100
AcDbEntity
  8
DEFPOINTS
 62
     0
100
AcDbPoint
 10
3728.421631316006
 20
3910.072966305277
 30
0.0
  0
ENDBLK
  5
355
330
348
100
AcDbEntity
  8
0
100
AcDbBlockEnd
  0
BLOCK
  5
4F
330
43
100
AcDbEntity
  8
0
100
AcDbBlockBegin
  2
*D34
 70
     1
 10
0.0
 20
0.0
 30
0.0
  3
*D34
  1

  0
LINE
  5
44
330
43
100
AcDbEntity
  8
0
 62
     0
100
AcDbLine
 10
3943.88392999826
 20
4745.05146591138
 30
0.0
 11
3943.88392999826
 21
4808.670941525277
 31
0.0
  0
LINE
  5
45
330
43
100
AcDbEntity
  8
0
 62
     0
100
AcDbLine
 10
3983.862654761622
 20
4795.051201413115
 30
0.0
 11
3983.862654761622
 21
4808.670941525277
 31
0.0
  0
LINE
  5
46
330
43
100
AcDbEntity
  8
0
 62
     0
100
AcDbLine
 10
3883.88392999826
 20
4808.670941525277
 30
0.0
 11
3823.88392999826
 21
4808.670941525277
 31
0.0
  0
LINE
  5
47
330
43
100
AcDbEntity
  8
0
 62
     0
100
AcDbLine
 10
4043.862654761623
 20
4808.670941525277
 30
0.0
 11
4103.862654761623
 21
4808.670941525277
 31
0.0
  0
LINE
  5
48
330
43
100
AcDbEntity
  8
0
 62
     0
100
AcDbLine
 10
3943.88392999826
 20
4808.670941525277
 30
0.0
 11
3983.862654761622
 21
4808.670941525277
 31
0.0
  0
INSERT
  5
49
330
43
100
AcDbEntity
  8
0
 62
     0
100
AcDbBlockReference
  2
_OPEN
 10
3943.88392999826
 20
4808.670941525277
 30
0.0
 41
60.0
 42
60.0
 43
60.0
  0
INSERT
  5
4A
330
43
100
AcDbEntity
  8
0
 62
     0
100
AcDbBlockReference
  2
_OPEN
 10
3983.862654761622
 20
4808.670941525277
 30
0.0
 41
60.0
 42
60.0
 43
60.0
 50
180.0
  0
MTEXT
  5
4B
330
43
100
AcDbEntity
  8
0
 62
     0
100
AcDbMText
 10
3963.873292379942
 20
4858.670941525277
 30
0.0
 40
60.0
 41
0.0
 71
     5
 72
     1
  1
\A1;40.0
1001
ACAD
1000
MTEXTBEGIN
1070
    73
1070
     1
1070
    44
1040
1.0
1070
    74
1070
     0
1000
MTEXTEND
  0
POINT
  5
4C
330
43
100
AcDbEntity
  8
DEFPOINTS
 62
     0
100
AcDbPoint
 10
3943.88392999826
 20
4745.05146591138
 30
0.0
  0
POINT
  5
4D
330
43
100
AcDbEntity
  8
DEFPOINTS
 62
     0
100
AcDbPoint
 10
3983.862654761622
 20
4795.051201413115
 30
0.0
  0
POINT
  5
4E
330
43
100
AcDbEntity
  8
DEFPOINTS
 62
     0
100
AcDbPoint
 10
3983.862654761622
 20
4808.670941525277
 30
0.0
  0
ENDBLK
  5
50
330
43
100
AcDbEntity
  8
0
100
AcDbBlockEnd
  0
BLOCK
  5
3C
330
35
100
AcDbEntity
  8
0
 62
   180
100
AcDbBlockBegin
  2
*D35
 70
     1
 10
0.0
 20
0.0
 30
0.0
  3
*D35
  1

  0
LINE
  5
36
330
35
100
AcDbEntity
  8
0
 62
     0
100
AcDbLine
 10
4086.815048622982
 20
4142.653071286647
 30
0.0
 11
4352.10044828411
 21
4500.128298641238
 31
0.0
  0
MTEXT
  5
37
330
35
100
AcDbEntity
  8
0
 62
     0
100
AcDbMText
 10
4144.992997730333
 20
4304.950102182663
 30
0.0
 40
60.0
 41
0.0
 71
     5
 72
     1
  1
\A1;R745.0
 11
0.5959365230450369
 21
0.8030315439016032
 31
0.0
1001
ACAD
1000
MTEXTBEGIN
1070
    73
1070
     1
1070
    44
1040
1.0
1070
    74
1070
     0
1000
MTEXTEND
  0
INSERT
  5
38
330
35
100
AcDbEntity
  8
0
 62
     0
100
AcDbBlockReference
  2
_OPEN
 10
4387.856639666812
 20
4548.310191275334
 30
0.0
 41
60.0
 42
60.0
 43
60.0
 50
53.42057646477305
  0
POINT
  5
39
330
35
100
AcDbEntity
  8
DEFPOINTS
 62
     0
100
AcDbPoint
 10
4387.856639666812
 20
4548.310191275334
 30
0.0
  0
POINT
  5
3B
330
35
100
AcDbEntity
  8
DEFPOINTS
 62
     0
100
AcDbPoint
 10
3943.883929998263
 20
3950.051691068644
 30
0.0
  0
ENDBLK
  5
3D
330
35
100
AcDbEntity
  8
0
 62
   180
100
AcDbBlockEnd
  0
BLOCK
  5
42F
330
423
100
AcDbEntity
  8
0
100
AcDbBlockBegin
  2
*D36
 70
     1
 10
0.0
 20
0.0
 30
0.0
  3
*D36
  1

  0
LINE
  5
424
330
423
100
AcDbEntity
  8
0
 62
     0
100
AcDbLine
 10
4109.874751868894
 20
4695.051691068643
 30
0.0
 11
4910.703248265105
 21
4695.051691068643
 31
0.0
  0
LINE
  5
425
330
423
100
AcDbEntity
  8
0
 62
     0
100
AcDbLine
 10
4698.434675898527
 20
4745.051465911381
 30
0.0
 11
4910.703248265105
 21
4745.051465911381
 31
0.0
  0
LINE
  5
426
330
423
100
AcDbEntity
  8
0
 62
     0
100
AcDbLine
 10
4910.703248265105
 20
4655.051691068643
 30
0.0
 11
4910.703248265105
 21
4615.051691068642
 31
0.0
  0
LINE
  5
427
330
423
100
AcDbEntity
  8
0
 62
     0
100
AcDbLine
 10
4910.703248265105
 20
4785.051465911381
 30
0.0
 11
4910.703248265105
 21
4825.051465911382
 31
0.0
  0
LINE
  5
428
330
423
100
AcDbEntity
  8
0
 62
     0
100
AcDbLine
 10
4910.703248265105
 20
4695.051691068643
 30
0.0
 11
4910.703248265105
 21
4745.051465911381
 31
0.0
  0
INSERT
  5
429
330
423
100
AcDbEntity
  8
0
 62
     0
100
AcDbBlockReference
  2
_OPEN
 10
4910.703248265105
 20
4695.051691068643
 30
0.0
 41
40.0
 42
40.0
 43
40.0
 50
90.0
  0
INSERT
  5
42A
330
423
100
AcDbEntity
  8
0
 62
     0
100
AcDbBlockReference
  2
_OPEN
 10
4910.703248265105
 20
4745.051465911381
 30
0.0
 41
40.0
 42
40.0
 43
40.0
 50
270.0
  0
MTEXT
  5
42B
330
423
100
AcDbEntity
  8
0
 62
     0
100
AcDbMText
 10
4840.703248265104
 20
4720.051578490013
 30
0.0
 40
100.0
 41
0.0
 71
     5
 72
     1
  1
\A1;40.0
 11
0.0000000000000001
 21
1.0
 31
0.0
1001
ACAD
1000
MTEXTBEGIN
1070
    73
1070
     1
1070
    44
1040
1.0
1070
    74
1070
     0
1000
MTEXTEND
  0
POINT
  5
42C
330
423
100
AcDbEntity
  8
DEFPOINTS
 62
     0
100
AcDbPoint
 10
4109.874751868894
 20
4695.051691068643
 30
0.0
  0
POINT
  5
42D
330
423
100
AcDbEntity
  8
DEFPOINTS
 62
     0
100
AcDbPoint
 10
4698.434675898527
 20
4745.051465911381
 30
0.0
  0
POINT
  5
42E
330
423
100
AcDbEntity
  8
DEFPOINTS
 62
     0
100
AcDbPoint
 10
4910.703248265105
 20
4745.051465911381
 30
0.0
  0
ENDBLK
  5
430
330
423
100
AcDbEntity
  8
0
100
AcDbBlockEnd
  0
BLOCK
  5
3A9
330
39D
100
AcDbEntity
  8
0
100
AcDbBlockBegin
  2
*D37
 70
     1
 10
0.0
 20
0.0
 30
0.0
  3
*D37
  1

  0
LINE
  5
39E
330
39D
100
AcDbEntity
  8
0
 62
     0
100
AcDbLine
 10
3148.88391769363
 20
3194.990464484395
 30
0.0
 11
3148.88391769363
 21
2966.314103629445
 31
0.0
  0
LINE
  5
39F
330
39D
100
AcDbEntity
  8
0
 62
     0
100
AcDbLine
 10
3198.883955234741
 20
3737.52398679898
 30
0.0
 11
3198.883955234741
 21
2966.314103629445
 31
0.0
  0
LINE
  5
3A0
330
39D
100
AcDbEntity
  8
0
 62
     0
100
AcDbLine
 10
3108.88391769363
 20
2966.314103629445
 30
0.0
 11
3068.88391769363
 21
2966.314103629445
 31
0.0
  0
LINE
  5
3A1
330
39D
100
AcDbEntity
  8
0
 62
     0
100
AcDbLine
 10
3238.883955234742
 20
2966.314103629445
 30
0.0
 11
3278.883955234741
 21
2966.314103629445
 31
0.0
  0
LINE
  5
3A2
330
39D
100
AcDbEntity
  8
0
 62
     0
100
AcDbLine
 10
3148.88391769363
 20
2966.314103629445
 30
0.0
 11
3198.883955234741
 21
2966.314103629445
 31
0.0
  0
INSERT
  5
3A3
330
39D
100
AcDbEntity
  8
0
 62
     0
100
AcDbBlockReference
  2
_OPEN
 10
3148.88391769363
 20
2966.314103629445
 30
0.0
 41
40.0
 42
40.0
 43
40.0
  0
INSERT
  5
3A4
330
39D
100
AcDbEntity
  8
0
 62
     0
100
AcDbBlockReference
  2
_OPEN
 10
3198.883955234741
 20
2966.314103629445
 30
0.0
 41
40.0
 42
40.0
 43
40.0
 50
180.0
  0
MTEXT
  5
3A5
330
39D
100
AcDbEntity
  8
0
 62
     0
100
AcDbMText
 10
3173.883936464186
 20
3036.314103629445
 30
0.0
 40
100.0
 41
0.0
 71
     5
 72
     1
  1
\A1;40.0
1001
ACAD
1000
MTEXTBEGIN
1070
    73
1070
     1
1070
    44
1040
1.0
1070
    74
1070
     0
1000
MTEXTEND
  0
POINT
  5
3A6
330
39D
100
AcDbEntity
  8
DEFPOINTS
 62
     0
100
AcDbPoint
 10
3148.88391769363
 20
3194.990464484395
 30
0.0
  0
POINT
  5
3A7
330
39D
100
AcDbEntity
  8
DEFPOINTS
 62
     0
100
AcDbPoint
 10
3198.883955234741
 20
3737.52398679898
 30
0.0
  0
POINT
  5
3A8
330
39D
100
AcDbEntity
  8
DEFPOINTS
 62
     0
100
AcDbPoint
 10
3198.883955234741
 20
2966.314103629445
 30
0.0
  0
ENDBLK
  5
3AA
330
39D
100
AcDbEntity
  8
0
100
AcDbBlockEnd
  0
BLOCK
  5
391
330
386
100
AcDbEntity
  8
0
100
AcDbBlockBegin
  2
*D38
 70
     1
 10
0.0
 20
0.0
 30
0.0
  3
*D38
  1

  0
LINE
  5
387
330
386
100
AcDbEntity
  8
0
 62
     0
100
AcDbLine
 10
2321.581770530174
 20
3084.203430557878
 30
0.0
 11
2321.581770530174
 21
2871.818533471829
 31
0.0
  0
LINE
  5
388
330
386
100
AcDbEntity
  8
0
 62
     0
100
AcDbLine
 10
2231.581770530178
 20
2871.818533471829
 30
0.0
 11
2191.581770530178
 21
2871.818533471829
 31
0.0
  0
LINE
  5
389
330
386
100
AcDbEntity
  8
0
 62
     0
100
AcDbLine
 10
2361.581770530174
 20
2871.818533471829
 30
0.0
 11
2401.581770530174
 21
2871.818533471829
 31
0.0
  0
LINE
  5
38A
330
386
100
AcDbEntity
  8
0
 62
     0
100
AcDbLine
 10
2271.581770530178
 20
2871.818533471829
 30
0.0
 11
2321.581770530174
 21
2871.818533471829
 31
0.0
  0
INSERT
  5
38B
330
386
100
AcDbEntity
  8
0
 62
     0
100
AcDbBlockReference
  2
_OPEN
 10
2271.581770530178
 20
2871.818533471829
 30
0.0
 41
40.0
 42
40.0
 43
40.0
  0
INSERT
  5
38C
330
386
100
AcDbEntity
  8
0
 62
     0
100
AcDbBlockReference
  2
_OPEN
 10
2321.581770530174
 20
2871.818533471829
 30
0.0
 41
40.0
 42
40.0
 43
40.0
 50
180.0
  0
MTEXT
  5
38D
330
386
100
AcDbEntity
  8
0
 62
     0
100
AcDbMText
 10
2296.581770530175
 20
2941.818533471829
 30
0.0
 40
100.0
 41
0.0
 71
     5
 72
     1
  1
\A1;40.0
1001
ACAD
1000
MTEXTBEGIN
1070
    73
1070
     1
1070
    44
1040
1.0
1070
    74
1070
     0
1000
MTEXTEND
  0
POINT
  5
38E
330
386
100
AcDbEntity
  8
DEFPOINTS
 62
     0
100
AcDbPoint
 10
2271.581770530178
 20
2871.818533471829
 30
0.0
  0
POINT
  5
38F
330
386
100
AcDbEntity
  8
DEFPOINTS
 62
     0
100
AcDbPoint
 10
2321.581770530174
 20
3084.203430557878
 30
0.0
  0
POINT
  5
390
330
386
100
AcDbEntity
  8
DEFPOINTS
 62
     0
100
AcDbPoint
 10
2321.581770530174
 20
2871.818533471829
 30
0.0
  0
ENDBLK
  5
392
330
386
100
AcDbEntity
  8
0
100
AcDbBlockEnd
  0
BLOCK
  5
336
330
32B
100
AcDbEntity
  8
0
100
AcDbBlockBegin
  2
*D39
 70
     1
 10
0.0
 20
0.0
 30
0.0
  3
*D39
  1

  0
LINE
  5
32C
330
32B
100
AcDbEntity
  8
0
 62
     0
100
AcDbLine
 10
483.1740033940804
 20
4918.347399264348
 30
0.0
 11
354.7517904207852
 21
4918.347399264348
 31
0.0
  0
LINE
  5
32D
330
32B
100
AcDbEntity
  8
0
 62
     0
100
AcDbLine
 10
354.7517904207852
 20
4958.347399264348
 30
0.0
 11
354.7517904207853
 21
4998.347399264349
 31
0.0
  0
LINE
  5
32E
330
32B
100
AcDbEntity
  8
0
 62
     0
100
AcDbLine
 10
354.7517904207852
 20
4828.347399264341
 30
0.0
 11
354.7517904207852
 21
4788.347399264341
 31
0.0
  0
LINE
  5
32F
330
32B
100
AcDbEntity
  8
0
 62
     0
100
AcDbLine
 10
354.7517904207852
 20
4918.347399264348
 30
0.0
 11
354.7517904207852
 21
4868.347399264341
 31
0.0
  0
INSERT
  5
330
330
32B
100
AcDbEntity
  8
0
 62
     0
100
AcDbBlockReference
  2
_OPEN
 10
354.7517904207852
 20
4918.347399264348
 30
0.0
 41
40.0
 42
40.0
 43
40.0
 50
270.0
  0
INSERT
  5
331
330
32B
100
AcDbEntity
  8
0
 62
     0
100
AcDbBlockReference
  2
_OPEN
 10
354.7517904207852
 20
4868.347399264341
 30
0.0
 41
40.0
 42
40.0
 43
40.0
 50
90.0
  0
MTEXT
  5
332
330
32B
100
AcDbEntity
  8
0
 62
     0
100
AcDbMText
 10
284.7517904207844
 20
4893.347399264345
 30
0.0
 40
100.0
 41
0.0
 71
     5
 72
     1
  1
\A1;40.0
 11
0.0000000000000001
 21
1.0
 31
0.0
1001
ACAD
1000
MTEXTBEGIN
1070
    73
1070
     1
1070
    44
1040
1.0
1070
    74
1070
     0
1000
MTEXTEND
  0
POINT
  5
333
330
32B
100
AcDbEntity
  8
DEFPOINTS
 62
     0
100
AcDbPoint
 10
483.1740033940804
 20
4918.347399264348
 30
0.0
  0
POINT
  5
334
330
32B
100
AcDbEntity
  8
DEFPOINTS
 62
     0
100
AcDbPoint
 10
354.7517904207852
 20
4868.347399264341
 30
0.0
  0
POINT
  5
335
330
32B
100
AcDbEntity
  8
DEFPOINTS
 62
     0
100
AcDbPoint
 10
354.7517904207852
 20
4868.347399264341
 30
0.0
  0
ENDBLK
  5
337
330
32B
100
AcDbEntity
  8
0
100
AcDbBlockEnd
  0
BLOCK
  5
256
330
24B
100
AcDbEntity
  8
0
100
AcDbBlockBegin
  2
*D40
 70
     1
 10
0.0
 20
0.0
 30
0.0
  3
*D40
  1

  0
LINE
  5
24C
330
24B
100
AcDbEntity
  8
0
 62
     0
100
AcDbLine
 10
2299.992139461985
 20
454.9069245728023
 30
0.0
 11
2299.992139461985
 21
232.0682067024845
 31
0.0
  0
LINE
  5
24D
330
24B
100
AcDbEntity
  8
0
 62
     0
100
AcDbLine
 10
2209.992139461816
 20
232.0682067024845
 30
0.0
 11
2169.992139461816
 21
232.0682067024845
 31
0.0
  0
LINE
  5
24E
330
24B
100
AcDbEntity
  8
0
 62
     0
100
AcDbLine
 10
2339.992139461985
 20
232.0682067024845
 30
0.0
 11
2379.992139461985
 21
232.0682067024845
 31
0.0
  0
LINE
  5
24F
330
24B
100
AcDbEntity
  8
0
 62
     0
100
AcDbLine
 10
2249.992139461816
 20
232.0682067024845
 30
0.0
 11
2299.992139461985
 21
232.0682067024845
 31
0.0
  0
INSERT
  5
250
330
24B
100
AcDbEntity
  8
0
 62
     0
100
AcDbBlockReference
  2
_OPEN
 10
2249.992139461816
 20
232.0682067024845
 30
0.0
 41
40.0
 42
40.0
 43
40.0
  0
INSERT
  5
251
330
24B
100
AcDbEntity
  8
0
 62
     0
100
AcDbBlockReference
  2
_OPEN
 10
2299.992139461985
 20
232.0682067024845
 30
0.0
 41
40.0
 42
40.0
 43
40.0
 50
180.0
  0
MTEXT
  5
252
330
24B
100
AcDbEntity
  8
0
 62
     0
100
AcDbMText
 10
2274.9921394619
 20
302.0682067024845
 30
0.0
 40
100.0
 41
0.0
 71
     5
 72
     1
  1
\A1;40.0
1001
ACAD
1000
MTEXTBEGIN
1070
    73
1070
     1
1070
    44
1040
1.0
1070
    74
1070
     0
1000
MTEXTEND
  0
POINT
  5
253
330
24B
100
AcDbEntity
  8
DEFPOINTS
 62
     0
100
AcDbPoint
 10
2249.992139461816
 20
232.0682067024845
 30
0.0
  0
POINT
  5
254
330
24B
100
AcDbEntity
  8
DEFPOINTS
 62
     0
100
AcDbPoint
 10
2299.992139461985
 20
454.9069245728023
 30
0.0
  0
POINT
  5
255
330
24B
100
AcDbEntity
  8
DEFPOINTS
 62
     0
100
AcDbPoint
 10
2299.992139461985
 20
232.0682067024845
 30
0.0
  0
ENDBLK
  5
257
330
24B
100
AcDbEntity
  8
0
100
AcDbBlockEnd
  0
BLOCK
  5
2FD
330
2F2
100
AcDbEntity
  8
0
100
AcDbBlockBegin
  2
*D41
 70
     1
 10
0.0
 20
0.0
 30
0.0
  3
*D41
  1

  0
LINE
  5
2F3
330
2F2
100
AcDbEntity
  8
0
 62
     0
100
AcDbLine
 10
461.5843723258913
 20
2289.050893279272
 30
0.0
 11
303.0572547636529
 21
2289.050893279272
 31
0.0
  0
LINE
  5
2F4
330
2F2
100
AcDbEntity
  8
0
 62
     0
100
AcDbLine
 10
303.0572547636529
 20
2329.050893279272
 30
0.0
 11
303.0572547636529
 21
2369.050893279272
 31
0.0
  0
LINE
  5
2F5
330
2F2
100
AcDbEntity
  8
0
 62
     0
100
AcDbLine
 10
303.0572547636529
 20
2199.0508932791
 30
0.0
 11
303.0572547636529
 21
2159.0508932791
 31
0.0
  0
LINE
  5
2F6
330
2F2
100
AcDbEntity
  8
0
 62
     0
100
AcDbLine
 10
303.0572547636529
 20
2289.050893279272
 30
0.0
 11
303.0572547636529
 21
2239.0508932791
 31
0.0
  0
INSERT
  5
2F7
330
2F2
100
AcDbEntity
  8
0
 62
     0
100
AcDbBlockReference
  2
_OPEN
 10
303.0572547636529
 20
2289.050893279272
 30
0.0
 41
40.0
 42
40.0
 43
40.0
 50
270.0
  0
INSERT
  5
2F8
330
2F2
100
AcDbEntity
  8
0
 62
     0
100
AcDbBlockReference
  2
_OPEN
 10
303.0572547636529
 20
2239.0508932791
 30
0.0
 41
40.0
 42
40.0
 43
40.0
 50
90.0
  0
MTEXT
  5
2F9
330
2F2
100
AcDbEntity
  8
0
 62
     0
100
AcDbMText
 10
233.0572547636525
 20
2264.050893279186
 30
0.0
 40
100.0
 41
0.0
 71
     5
 72
     1
  1
\A1;40.0
 11
0.0000000000000001
 21
1.0
 31
0.0
1001
ACAD
1000
MTEXTBEGIN
1070
    73
1070
     1
1070
    44
1040
1.0
1070
    74
1070
     0
1000
MTEXTEND
  0
POINT
  5
2FA
330
2F2
100
AcDbEntity
  8
DEFPOINTS
 62
     0
100
AcDbPoint
 10
461.5843723258913
 20
2289.050893279272
 30
0.0
  0
POINT
  5
2FB
330
2F2
100
AcDbEntity
  8
DEFPOINTS
 62
     0
100
AcDbPoint
 10
303.0572547636529
 20
2239.0508932791
 30
0.0
  0
POINT
  5
2FC
330
2F2
100
AcDbEntity
  8
DEFPOINTS
 62
     0
100
AcDbPoint
 10
303.0572547636529
 20
2239.0508932791
 30
0.0
  0
ENDBLK
  5
2FE
330
2F2
100
AcDbEntity
  8
0
100
AcDbBlockEnd
  0
BLOCK
  5
416
330
40B
100
AcDbEntity
  8
0
100
AcDbBlockBegin
  2
*D42
 70
     1
 10
0.0
 20
0.0
 30
0.0
  3
*D42
  1

  0
LINE
  5
40C
330
40B
100
AcDbEntity
  8
0
 62
     0
100
AcDbLine
 10
4861.270323940496
 20
2189.241512724664
 30
0.0
 11
5040.802259671917
 21
2189.241512724664
 31
0.0
  0
LINE
  5
40D
330
40B
100
AcDbEntity
  8
0
 62
     0
100
AcDbLine
 10
5040.802259671917
 20
2109.241512724672
 30
0.0
 11
5040.802259671917
 21
2069.241512724672
 31
0.0
  0
LINE
  5
40E
330
40B
100
AcDbEntity
  8
0
 62
     0
100
AcDbLine
 10
5040.802259671917
 20
2229.241512724664
 30
0.0
 11
5040.802259671917
 21
2269.241512724665
 31
0.0
  0
LINE
  5
40F
330
40B
100
AcDbEntity
  8
0
 62
     0
100
AcDbLine
 10
5040.802259671917
 20
2149.241512724672
 30
0.0
 11
5040.802259671917
 21
2189.241512724664
 31
0.0
  0
INSERT
  5
410
330
40B
100
AcDbEntity
  8
0
 62
     0
100
AcDbBlockReference
  2
_OPEN
 10
5040.802259671917
 20
2149.241512724672
 30
0.0
 41
40.0
 42
40.0
 43
40.0
 50
90.0
  0
INSERT
  5
411
330
40B
100
AcDbEntity
  8
0
 62
     0
100
AcDbBlockReference
  2
_OPEN
 10
5040.802259671917
 20
2189.241512724664
 30
0.0
 41
40.0
 42
40.0
 43
40.0
 50
270.0
  0
MTEXT
  5
412
330
40B
100
AcDbEntity
  8
0
 62
     0
100
AcDbMText
 10
4970.802259671916
 20
2169.241512724668
 30
0.0
 40
100.0
 41
0.0
 71
     5
 72
     1
  1
\A1;40.0
 11
0.0000000000000001
 21
1.0
 31
0.0
1001
ACAD
1000
MTEXTBEGIN
1070
    73
1070
     1
1070
    44
1040
1.0
1070
    74
1070
     0
1000
MTEXTEND
  0
POINT
  5
413
330
40B
100
AcDbEntity
  8
DEFPOINTS
 62
     0
100
AcDbPoint
 10
5040.802259671917
 20
2149.241512724672
 30
0.0
  0
POINT
  5
414
330
40B
100
AcDbEntity
  8
DEFPOINTS
 62
     0
100
AcDbPoint
 10
4861.270323940496
 20
2189.241512724664
 30
0.0
  0
POINT
  5
415
330
40B
100
AcDbEntity
  8
DEFPOINTS
 62
     0
100
AcDbPoint
 10
5040.802259671917
 20
2189.241512724664
 30
0.0
  0
ENDBLK
  5
417
330
40B
100
AcDbEntity
  8
0
100
AcDbBlockEnd
  0
BLOCK
  5
271
330
266
100
AcDbEntity
  8
0
100
AcDbBlockBegin
  2
*D43
 70
     1
 10
0.0
 20
0.0
 30
0.0
  3
*D43
  1

  0
LINE
  5
267
330
266
100
AcDbEntity
  8
0
 62
     0
100
AcDbLine
 10
3195.389443034275
 20
539.6639511472349
 30
0.0
 11
3195.389443034275
 21
355.214063818058
 31
0.0
  0
LINE
  5
268
330
266
100
AcDbEntity
  8
0
 62
     0
100
AcDbLine
 10
3155.389443034275
 20
355.214063818058
 30
0.0
 11
3115.389443034275
 21
355.214063818058
 31
0.0
  0
LINE
  5
269
330
266
100
AcDbEntity
  8
0
 62
     0
100
AcDbLine
 10
3275.389443034269
 20
355.214063818058
 30
0.0
 11
3315.389443034269
 21
355.214063818058
 31
0.0
  0
LINE
  5
26A
330
266
100
AcDbEntity
  8
0
 62
     0
100
AcDbLine
 10
3195.389443034275
 20
355.214063818058
 30
0.0
 11
3235.38944303427
 21
355.214063818058
 31
0.0
  0
INSERT
  5
26B
330
266
100
AcDbEntity
  8
0
 62
     0
100
AcDbBlockReference
  2
_OPEN
 10
3195.389443034275
 20
355.214063818058
 30
0.0
 41
40.0
 42
40.0
 43
40.0
  0
INSERT
  5
26C
330
266
100
AcDbEntity
  8
0
 62
     0
100
AcDbBlockReference
  2
_OPEN
 10
3235.38944303427
 20
355.214063818058
 30
0.0
 41
40.0
 42
40.0
 43
40.0
 50
180.0
  0
MTEXT
  5
26D
330
266
100
AcDbEntity
  8
0
 62
     0
100
AcDbMText
 10
3215.389443034272
 20
425.2140638180581
 30
0.0
 40
100.0
 41
0.0
 71
     5
 72
     1
  1
\A1;40.0
1001
ACAD
1000
MTEXTBEGIN
1070
    73
1070
     1
1070
    44
1040
1.0
1070
    74
1070
     0
1000
MTEXTEND
  0
POINT
  5
26E
330
266
100
AcDbEntity
  8
DEFPOINTS
 62
     0
100
AcDbPoint
 10
3195.389443034275
 20
539.6639511472349
 30
0.0
  0
POINT
  5
26F
330
266
100
AcDbEntity
  8
DEFPOINTS
 62
     0
100
AcDbPoint
 10
3235.38944303427
 20
355.214063818058
 30
0.0
  0
POINT
  5
270
330
266
100
AcDbEntity
  8
DEFPOINTS
 62
     0
100
AcDbPoint
 10
3235.38944303427
 20
355.214063818058
 30
0.0
  0
ENDBLK
  5
272
330
266
100
AcDbEntity
  8
0
100
AcDbBlockEnd
  0
BLOCK
  5
215
330
20A
100
AcDbEntity
  8
0
100
AcDbBlockBegin
  2
*D44
 70
     1
 10
0.0
 20
0.0
 30
0.0
  3
*D44
  1

  0
LINE
  5
20B
330
20A
100
AcDbEntity
  8
0
 62
     0
100
AcDbLine
 10
2209.972271372242
 20
-2143.554404339988
 30
0.0
 11
2209.972271372242
 21
-2252.789044377323
 31
0.0
  0
LINE
  5
20C
330
20A
100
AcDbEntity
  8
0
 62
     0
100
AcDbLine
 10
2161.772054679173
 20
-2252.789044377323
 30
0.0
 11
2121.772054679173
 21
-2252.789044377323
 31
0.0
  0
LINE
  5
20D
330
20A
100
AcDbEntity
  8
0
 62
     0
100
AcDbLine
 10
2249.972271372242
 20
-2252.789044377323
 30
0.0
 11
2403.305604705575
 21
-2252.789044377323
 31
0.0
  0
LINE
  5
20E
330
20A
100
AcDbEntity
  8
0
 62
     0
100
AcDbLine
 10
2201.772054679173
 20
-2252.789044377323
 30
0.0
 11
2209.972271372242
 21
-2252.789044377323
 31
0.0
  0
INSERT
  5
20F
330
20A
100
AcDbEntity
  8
0
 62
     0
100
AcDbBlockReference
  2
_OPEN
 10
2201.772054679173
 20
-2252.789044377323
 30
0.0
 41
40.0
 42
40.0
 43
40.0
  0
INSERT
  5
210
330
20A
100
AcDbEntity
  8
0
 62
     0
100
AcDbBlockReference
  2
_OPEN
 10
2209.972271372242
 20
-2252.789044377323
 30
0.0
 41
40.0
 42
40.0
 43
40.0
 50
180.0
  0
MTEXT
  5
211
330
20A
100
AcDbEntity
  8
0
 62
     0
100
AcDbMText
 10
2346.638938038908
 20
-2182.789044377323
 30
0.0
 40
100.0
 41
0.0
 71
     5
 72
     1
  1
\A1;８
1001
ACAD
1000
MTEXTBEGIN
1070
    73
1070
     1
1070
    44
1040
1.0
1070
    74
1070
     0
1000
MTEXTEND
  0
POINT
  5
212
330
20A
100
AcDbEntity
  8
DEFPOINTS
 62
     0
100
AcDbPoint
 10
2201.772054679173
 20
-2252.789044377323
 30
0.0
  0
POINT
  5
213
330
20A
100
AcDbEntity
  8
DEFPOINTS
 62
     0
100
AcDbPoint
 10
2209.972271372242
 20
-2143.554404339988
 30
0.0
  0
POINT
  5
214
330
20A
100
AcDbEntity
  8
DEFPOINTS
 62
     0
100
AcDbPoint
 10
2209.972271372242
 20
-2252.789044377323
 30
0.0
  0
ENDBLK
  5
216
330
20A
100
AcDbEntity
  8
0
100
AcDbBlockEnd
  0
BLOCK
  5
1A5
330
19A
100
AcDbEntity
  8
0
100
AcDbBlockBegin
  2
*D45
 70
     1
 10
0.0
 20
0.0
 30
0.0
  3
*D45
  1

  0
LINE
  5
19B
330
19A
100
AcDbEntity
  8
0
 62
     0
100
AcDbLine
 10
456.5432289994914
 20
-394.3891603968932
 30
0.0
 11
377.9082563896666
 21
-394.3891603968931
 31
0.0
  0
LINE
  5
19C
330
19A
100
AcDbEntity
  8
0
 62
     0
100
AcDbLine
 10
377.9082563896667
 20
-354.3891603968931
 30
0.0
 11
377.9082563896667
 21
-314.3891603968931
 31
0.0
  0
LINE
  5
19D
330
19A
100
AcDbEntity
  8
0
 62
     0
100
AcDbLine
 10
377.9082563896666
 20
-442.5893770900926
 30
0.0
 11
377.9082563896666
 21
-482.5893770900926
 31
0.0
  0
LINE
  5
19E
330
19A
100
AcDbEntity
  8
0
 62
     0
100
AcDbLine
 10
377.9082563896666
 20
-394.3891603968931
 30
0.0
 11
377.9082563896666
 21
-402.5893770900927
 31
0.0
  0
INSERT
  5
19F
330
19A
100
AcDbEntity
  8
0
 62
     0
100
AcDbBlockReference
  2
_OPEN
 10
377.9082563896666
 20
-394.3891603968931
 30
0.0
 41
40.0
 42
40.0
 43
40.0
 50
270.0
  0
INSERT
  5
1A0
330
19A
100
AcDbEntity
  8
0
 62
     0
100
AcDbBlockReference
  2
_OPEN
 10
377.9082563896666
 20
-402.5893770900927
 30
0.0
 41
40.0
 42
40.0
 43
40.0
 50
90.0
  0
MTEXT
  5
1A1
330
19A
100
AcDbEntity
  8
0
 62
     0
100
AcDbMText
 10
307.9082563896668
 20
-398.4892687434928
 30
0.0
 40
100.0
 41
0.0
 71
     5
 72
     1
  1
\A1;８
 11
0.0000000000000001
 21
1.0
 31
0.0
1001
ACAD
1000
MTEXTBEGIN
1070
    73
1070
     1
1070
    44
1040
1.0
1070
    74
1070
     0
1000
MTEXTEND
  0
POINT
  5
1A2
330
19A
100
AcDbEntity
  8
DEFPOINTS
 62
     0
100
AcDbPoint
 10
456.5432289994914
 20
-394.3891603968932
 30
0.0
  0
POINT
  5
1A3
330
19A
100
AcDbEntity
  8
DEFPOINTS
 62
     0
100
AcDbPoint
 10
377.9082563896666
 20
-402.5893770900927
 30
0.0
  0
POINT
  5
1A4
330
19A
100
AcDbEntity
  8
DEFPOINTS
 62
     0
100
AcDbPoint
 10
377.9082563896666
 20
-402.5893770900927
 30
0.0
  0
ENDBLK
  5
1A6
330
19A
100
AcDbEntity
  8
0
100
AcDbBlockEnd
  0
ENDSEC
  0
SECTION
  2
ENTITIES
  0
HATCH
  5
32
330
2
100
AcDbEntity
  8
1
100
AcDbHatch
 10
0.0
 20
0.0
 30
0.0
210
0.0
220
0.0
230
1.0
  2
ANSI31
 70
     0
 71
     0
 91
        2
 92
        7
 72
     0
 73
     1
 93
        4
 10
4842.997001802348
 20
2238.53708031544
 10
4123.389443034279
 20
2238.53708031544
 10
4123.389443034279
 20
2189.241512724666
 10
4842.997001802349
 20
2189.241512724666
 97
        0
 92
        7
 72
     0
 73
     1
 93
        4
 10
3195.389443034276
 20
1261.241512724669
 10
3137.486462973756
 20
1261.241512724669
 10
3137.486462973756
 20
539.6639511472349
 10
3195.389443034276
 20
539.6639511472348
 97
        0
 75
     0
 76
     1
 52
0.0
 41
5.0
 77
     0
 78
     1
 53
45.0
 43
0.0
 44
0.0
 45
-11.22532015133643
 46
11.22532015133644
 79
     0
 47
3.044575481829791
 98
        2
 10
4501.894880091025
 20
2205.046762128451
 10
3170.987549686589
 20
1005.484004932688
  0
HATCH
  5
33
330
2
100
AcDbEntity
  8
1
100
AcDbHatch
 10
0.0
 20
0.0
 30
0.0
210
0.0
220
0.0
230
1.0
  2
ANSI31
 70
     0
 71
     0
 91
        2
 92
        7
 72
     0
 73
     1
 93
        4
 10
4689.602548861682
 20
4793.088146039826
 10
3983.862654761622
 20
4795.051201413115
 10
3983.862654761622
 20
4745.05146591138
 10
4689.602548861683
 20
4745.051465911382
 97
        0
 92
        7
 72
     0
 73
     1
 93
        4
 10
3148.88391769363
 20
3910.072966305278
 10
3098.883917693629
 20
3910.072966305278
 10
3098.883917693629
 20
3206.762832687637
 10
3148.883917693631
 20
3206.762832687636
 97
        0
 75
     0
 76
     1
 52
0.0
 41
5.0
 77
     0
 78
     1
 53
45.0
 43
0.0
 44
0.0
 45
-11.22532015133643
 46
11.22532015133644
 79
     0
 47
2.943089614613195
 98
        2
 10
4345.150332401249
 20
4772.486506127956
 10
3135.151523174158
 20
3451.039272933714
  0
DIMENSION
  5
34
330
2
100
AcDbEntity
  8
0
100
AcDbDimension
  2
*D35
 10
3943.883929998263
 20
3950.051691068644
 30
0.0
 11
4185.144574925413
 21
4275.153276030411
 31
0.0
 70
   132
  3
STANDARD
100
AcDbRadialDimension
 15
4387.856639666812
 25
4548.310191275334
 35
0.0
 40
0.0
1001
ACAD
1000
DSTYLE
1002
{
1070
    41
1040
3.0
1070
   140
1040
3.0
1002
}
  0
CIRCLE
  5
3E
330
2
100
AcDbEntity
  8
1
100
AcDbCircle
 10
3943.883929998257
 20
3950.051691068641
 30
0.0
 40
30.0
  0
LINE
  5
3F
330
2
100
AcDbEntity
  8
1
100
AcDbLine
 10
3978.883929998256
 20
3985.05169106864
 30
0.0
 11
3908.883929998257
 21
3915.051691068641
 31
0.0
  0
LINE
  5
40
330
2
100
AcDbEntity
  8
1
100
AcDbLine
 10
3908.883929998257
 20
3985.05169106864
 30
0.0
 11
3978.883929998256
 21
3915.051691068641
 31
0.0
  0
LWPOLYLINE
  5
41
330
2
100
AcDbEntity
  8
1
100
AcDbPolyline
 90
        4
 70
     1
 43
0.0
 10
3978.883929998256
 20
3915.051691068641
 10
3908.883929998257
 20
3915.051691068641
 10
3908.883929998257
 20
3985.05169106864
 10
3978.883929998256
 20
3985.05169106864
  0
DIMENSION
  5
42
330
2
100
AcDbEntity
  8
0
100
AcDbDimension
  2
*D34
 10
3983.862654761622
 20
4808.670941525277
 30
0.0
 11
3963.873292379942
 21
4858.670941525277
 31
0.0
  3
STANDARD
100
AcDbAlignedDimension
 13
3943.88392999826
 23
4745.05146591138
 33
0.0
 14
3983.862654761622
 24
4795.051201413115
 34
0.0
100
AcDbRotatedDimension
1001
ACAD
1000
DSTYLE
1002
{
1070
    41
1040
3.0
1070
   140
1040
3.0
1002
}
  0
DIMENSION
  5
51
330
2
100
AcDbEntity
  8
0
100
AcDbDimension
  2
*D21
 10
3842.524584108069
 20
1261.241512724667
 30
0.0
 11
3792.524584108069
 21
1302.74151272467
 31
0.0
  3
STANDARD
100
AcDbAlignedDimension
 13
4040.389443034282
 23
1344.241512724671
 33
0.0
 14
4040.389443034277
 24
1261.241512724667
 34
0.0
 50
90.0
100
AcDbRotatedDimension
1001
ACAD
1000
DSTYLE
1002
{
1070
    41
1040
3.0
1070
   140
1040
3.0
1002
}
  0
DIMENSION
  5
60
330
2
100
AcDbEntity
  8
0
100
AcDbDimension
  2
*D20
 10
4123.389443034279
 20
2414.167060864822
 30
0.0
 11
4081.88944303428
 21
2464.167060864822
 31
0.0
  3
STANDARD
100
AcDbAlignedDimension
 13
4040.389443034282
 23
2189.241512724666
 33
0.0
 14
4123.389443034279
 24
2189.241512724666
 34
0.0
100
AcDbRotatedDimension
1001
ACAD
1000
DSTYLE
1002
{
1070
    41
1040
3.0
1070
   140
1040
3.0
1002
}
  0
LWPOLYLINE
  5
6F
330
2
100
AcDbEntity
  8
6
100
AcDbPolyline
 90
        4
 70
     1
 43
0.0
 10
3992.389443034277
 20
2088.995320025412
 10
3922.389443034278
 20
2088.995320025412
 10
3922.389443034278
 20
2158.995320025412
 10
3992.389443034277
 20
2158.995320025412
  0
LINE
  5
72
330
2
100
AcDbEntity
  8
6
100
AcDbLine
 10
3922.389443034278
 20
2158.995320025412
 30
0.0
 11
3992.389443034277
 21
2088.995320025412
 31
0.0
  0
LINE
  5
73
330
2
100
AcDbEntity
  8
6
100
AcDbLine
 10
3992.389443034277
 20
2158.995320025412
 30
0.0
 11
3922.389443034278
 21
2088.995320025412
 31
0.0
  0
CIRCLE
  5
74
330
2
100
AcDbEntity
  8
6
100
AcDbCircle
 10
3957.389443034278
 20
2123.995320025412
 30
0.0
 40
30.0
  0
LINE
  5
75
330
2
100
AcDbEntity
  8
6
100
AcDbLine
 10
3974.889443034278
 20
2141.495320025412
 30
0.0
 11
3939.889443034278
 21
2106.495320025412
 31
0.0
  0
LINE
  5
76
330
2
100
AcDbEntity
  8
6
100
AcDbLine
 10
3939.889443034278
 20
2141.495320025412
 30
0.0
 11
3974.889443034278
 21
2106.495320025412
 31
0.0
  0
LINE
  5
77
330
2
100
AcDbEntity
  8
6
100
AcDbLine
 10
4123.389443034278
 20
2189.241512724666
 30
0.0
 11
3195.389443034277
 21
2189.241512724666
 31
0.0
  0
DIMENSION
  5
78
330
2
100
AcDbEntity
  8
0
100
AcDbDimension
  2
*D18
 10
3045.389443034279
 20
2538.72510525636
 30
0.0
 11
3584.443297481528
 21
2538.72510525636
 31
0.0
 70
   128
  3
STANDARD
100
AcDbAlignedDimension
 13
4123.389443034279
 23
2339.241512724667
 33
0.0
 14
3045.389443034279
 24
2339.24151272467
 34
0.0
 50
180.0
100
AcDbRotatedDimension
1001
ACAD
1000
DSTYLE
1002
{
1070
    41
1040
3.0
1070
   140
1040
3.0
1002
}
  0
LINE
  5
85
330
2
100
AcDbEntity
  8
1
100
AcDbLine
 10
4123.389443034279
 20
2339.241512724667
 30
0.0
 11
3045.389443034279
 21
2339.24151272467
 31
0.0
  0
CIRCLE
  5
86
330
2
100
AcDbEntity
  8
6
100
AcDbCircle
 10
4040.389443034277
 20
1344.241512724666
 30
0.0
 40
83.0
  0
LINE
  5
87
330
2
100
AcDbEntity
  8
1
100
AcDbLine
 10
4117.071444232713
 20
1312.478787838364
 30
0.0
 11
3827.971650214932
 21
614.5301442413693
 31
0.0
  0
LINE
  5
88
330
2
100
AcDbEntity
  8
1
100
AcDbLine
 10
4099.079305872759
 20
1285.551649886183
 30
0.0
 11
3564.892540780246
 21
751.3648847936702
 31
0.0
  0
LINE
  5
89
330
2
100
AcDbEntity
  8
1
100
AcDbLine
 10
4072.15216792058
 20
1267.55951152623
 30
0.0
 11
3374.203524323583
 21
978.459717508451
 31
0.0
  0
LINE
  5
8A
330
2
100
AcDbEntity
  8
5
 62
   180
100
AcDbLine
 10
4040.389443034277
 20
1261.241512724667
 30
0.0
 11
3284.935275000234
 21
1261.241512724669
 31
0.0
  0
DIMENSION
  5
8C
330
2
100
AcDbEntity
  8
0
100
AcDbDimension
  2
*D16
 10
4845.389443034281
 20
355.214063818058
 30
0.0
 11
4040.389443034275
 21
425.2140638180581
 31
0.0
  3
STANDARD
100
AcDbAlignedDimension
 13
3235.38944303427
 23
1160.921008680701
 33
0.0
 14
4845.389443034281
 24
1146.706662909802
 34
0.0
100
AcDbRotatedDimension
1001
ACAD
1000
DSTYLE
1002
{
1070
    41
1040
3.0
1070
   140
1040
5.0
1002
}
  0
ARC
  5
99
330
2
100
AcDbEntity
  8
1
100
AcDbCircle
 10
4040.389443034277
 20
1344.241512724666
 30
0.0
 40
760.0000000000059
100
AcDbArc
 50
182.6395550006474
 51
84.39630631630315
  0
ARC
  5
9A
330
2
100
AcDbEntity
  8
1
100
AcDbCircle
 10
4040.389443034277
 20
1344.241512724666
 30
0.0
 40
805.0000000000059
100
AcDbArc
 50
182.4919063689767
 51
84.67889085270483
  0
CIRCLE
  5
9B
330
2
100
AcDbEntity
  8
1
100
AcDbCircle
 10
3943.883929998257
 20
3950.051691068641
 30
0.0
 40
87.50000000000234
  0
ARC
  5
9C
330
2
100
AcDbEntity
  8
1
100
AcDbCircle
 10
3943.883929998254
 20
3950.051691068641
 30
0.0
 40
87.50000000000179
100
AcDbArc
 50
255.3957057750694
 51
14.60429422493048
  0
CIRCLE
  5
9D
330
2
100
AcDbEntity
  8
1
100
AcDbCircle
 10
3943.88392999826
 20
3950.051691068642
 30
0.0
 40
72.5
  0
ARC
  5
9E
330
2
100
AcDbEntity
  8
6
100
AcDbCircle
 10
3963.345109339238
 20
5420.727036273893
 30
0.0
 40
1383.304102692104
100
AcDbArc
 50
269.2418596211997
 51
272.0585461232995
  0
ARC
  5
9F
330
2
100
AcDbEntity
  8
6
100
AcDbCircle
 10
3277.659037041695
 20
5261.314098255301
 30
0.0
 40
1383.304102692104
100
AcDbArc
 50
296.9341673135433
 51
301.6862268614707
  0
ARC
  5
A0
330
2
100
AcDbEntity
  8
6
100
AcDbCircle
 10
2744.597058840174
 20
4801.506745175309
 30
0.0
 40
1383.304102692104
100
AcDbArc
 50
324.6264750058412
 51
334.1351651131683
  0
ARC
  5
A1
330
2
100
AcDbEntity
  8
1
100
AcDbCircle
 10
4276.943904348796
 20
2517.454133489559
 30
0.0
 40
1383.304102692104
100
AcDbArc
 50
103.0880134673526
 51
117.6923076923051
  0
ARC
  5
A2
330
2
100
AcDbEntity
  8
6
100
AcDbCircle
 10
3943.88392999826
 20
3950.051691068642
 30
0.0
 40
700.0000000000007
100
AcDbArc
 50
86.72591529059991
 51
183.2740847094
  0
ARC
  5
A3
330
2
100
AcDbEntity
  8
6
100
AcDbCircle
 10
3943.88392999826
 20
3950.051691068642
 30
0.0
 40
745.0000000000008
100
AcDbArc
 50
86.92387516668375
 51
183.0761248333162
  0
LINE
  5
A4
330
2
100
AcDbEntity
  8
6
100
AcDbLine
 10
3148.883917693634
 20
4745.051465911384
 30
0.0
 11
3983.862654761622
 21
4745.051465911381
 31
0.0
  0
LINE
  5
A5
330
2
100
AcDbEntity
  8
1
100
AcDbLine
 10
3098.884198030535
 20
4795.051465911384
 30
0.0
 11
3983.862654761622
 21
4795.05146591138
 31
0.0
  0
DIMENSION
  5
A6
330
2
100
AcDbEntity
  8
0
100
AcDbDimension
  2
*D6
 10
3098.884235041886
 20
4918.886860221609
 30
0.0
 11
3541.373478351199
 21
4968.886727972471
 31
0.0
 70
     1
  3
STANDARD
100
AcDbAlignedDimension
 13
3983.862654761622
 23
4795.051201413115
 33
0.0
 14
3098.884198030535
 24
4795.051465911384
 34
0.0
1001
ACAD
1000
DSTYLE
1002
{
1070
    41
1040
3.0
1070
   140
1040
3.0
1002
}
  0
ARC
  5
B3
330
2
100
AcDbEntity
  8
1
100
AcDbCircle
 10
4904.555172411152
 20
2836.330239135172
 30
0.0
 40
1383.304102692104
100
AcDbArc
 50
130.7803211596755
 51
145.3846153845935
  0
ARC
  5
B4
330
2
100
AcDbEntity
  8
1
100
AcDbCircle
 10
5312.088236180223
 20
3410.346507620258
 30
0.0
 40
1383.304102692104
100
AcDbArc
 50
158.4726288519611
 51
173.0769230769358
  0
DIMENSION
  5
B5
330
2
100
AcDbEntity
  8
0
100
AcDbDimension
  2
*D5
 10
3198.883955234741
 20
2966.314103629445
 30
0.0
 11
3943.883955234742
 21
3036.314103629445
 31
0.0
  3
STANDARD
100
AcDbAlignedDimension
 13
4688.883955234743
 23
3737.52398679898
 33
0.0
 14
3198.883955234741
 24
3737.52398679898
 34
0.0
 50
180.0
100
AcDbRotatedDimension
1001
ACAD
1000
DSTYLE
1002
{
1070
    41
1040
2.0
1070
   140
1040
5.0
1002
}
  0
ARC
  5
C2
330
2
100
AcDbEntity
  8
1
100
AcDbCircle
 10
3943.88392999826
 20
3950.051691068642
 30
0.0
 40
700.0000000000007
100
AcDbArc
 50
183.2740847094
 51
86.72591529059991
  0
ARC
  5
C3
330
2
100
AcDbEntity
  8
1
100
AcDbCircle
 10
3943.88392999826
 20
3950.051691068642
 30
0.0
 40
745.0000000000008
100
AcDbArc
 50
183.0761248333162
 51
86.92387516668375
  0
HATCH
  5
C4
330
2
100
AcDbEntity
  8
1
100
AcDbHatch
 10
0.0
 20
0.0
 30
0.0
210
0.0
220
0.0
230
1.0
  2
ANSI31
 70
     0
 71
     0
 91
        2
 92
        7
 72
     0
 73
     1
 93
        4
 10
2349.99213946181
 20
1304.072168515904
 10
2299.99213946181
 20
1304.072168515904
 10
2299.99213946181
 20
454.9069245728028
 10
2349.99213946181
 20
454.9069245728019
 97
        0
 92
        7
 72
     0
 73
     1
 93
        4
 10
1315.013414698438
 20
2339.050893279269
 10
461.5843723257166
 20
2339.050893279269
 10
461.5843723257167
 20
2289.050893279272
 10
1315.013414698438
 20
2289.050893279272
 97
        0
 75
     0
 76
     1
 52
0.0
 41
5.0
 77
     0
 78
     1
 53
45.0
 43
-21.58963106836381
 44
-2629.296505985076
 45
-11.22532015133643
 46
11.22532015133644
 79
     0
 47
3.277992928535928
 98
        2
 10
2317.52499658638
 20
894.1579728120778
 10
1078.045219169162
 20
2303.69495802667
  0
LINE
  5
C5
330
2
100
AcDbEntity
  8
4
100
AcDbLine
 10
1354.992139461725
 20
2339.050893279102
 30
0.0
 11
1354.992139461725
 21
1379.050893279094
 31
0.0
  0
DIMENSION
  5
C8
330
2
100
AcDbEntity
  8
0
100
AcDbDimension
  2
*D22
 10
303.0572547636525
 20
449.0508932790887
 30
0.0
 11
233.0572547636524
 21
1344.050893279094
 31
0.0
  3
STANDARD
100
AcDbAlignedDimension
 13
1143.719505912035
 23
2239.0508932791
 33
0.0
 14
1113.111173765159
 24
449.0508932790885
 34
0.0
 50
90.0
100
AcDbRotatedDimension
1001
ACAD
1000
DSTYLE
1002
{
1070
    41
1040
3.0
1070
   140
1040
5.0
1002
}
  0
LINE
  5
D5
330
2
100
AcDbEntity
  8
6
100
AcDbLine
 10
3957.389443034278
 20
1344.241512724666
 30
0.0
 11
3957.389443034278
 21
2088.995320025412
 31
0.0
  0
LINE
  5
D6
330
2
100
AcDbEntity
  8
6
100
AcDbLine
 10
3195.389443034276
 20
1261.241512724669
 30
0.0
 11
3195.389443034277
 21
2189.241512724666
 31
0.0
  0
DIMENSION
  5
D7
330
2
100
AcDbEntity
  8
0
100
AcDbDimension
  2
*D15
 10
2956.631443250561
 20
2339.24151272467
 30
0.0
 11
2956.631443250561
 21
1813.582093925658
 31
0.0
 70
   128
  3
STANDARD
100
AcDbAlignedDimension
 13
3045.389443034277
 23
1261.24151272467
 33
0.0
 14
3045.389443034279
 24
2339.24151272467
 34
0.0
 50
90.0
100
AcDbRotatedDimension
1001
ACAD
1000
DSTYLE
1002
{
1070
    41
1040
3.0
1070
   140
1040
3.0
1002
}
  0
LINE
  5
E4
330
2
100
AcDbEntity
  8
1
100
AcDbLine
 10
3045.389443034279
 20
1261.241512724669
 30
0.0
 11
3045.389443034279
 21
2339.24151272467
 31
0.0
  0
LINE
  5
E5
330
2
100
AcDbEntity
  8
1
100
AcDbLine
 10
2349.992139461817
 20
1261.050893279098
 30
0.0
 11
2349.992139461816
 21
2339.050893279102
 31
0.0
  0
LINE
  5
E6
330
2
100
AcDbEntity
  8
6
100
AcDbLine
 10
2299.992139461817
 20
1261.050893279098
 30
0.0
 11
2299.992139461817
 21
2289.050893279101
 31
0.0
  0
DIMENSION
  5
E7
330
2
100
AcDbEntity
  8
0
100
AcDbDimension
  2
*D14
 10
2488.764247940271
 20
1261.050893279098
 30
0.0
 11
2438.76424794027
 21
1800.0508932791
 31
0.0
  3
STANDARD
100
AcDbAlignedDimension
 13
2349.992139461816
 23
2339.050893279102
 33
0.0
 14
2349.992139461817
 24
1261.050893279098
 34
0.0
 50
90.0
100
AcDbRotatedDimension
1001
ACAD
1000
DSTYLE
1002
{
1070
   140
1040
3.0
1070
    41
1040
3.0
1002
}
  0
LINE
  5
F4
330
2
100
AcDbEntity
  8
6
100
AcDbLine
 10
1437.992139461809
 20
1344.050893279094
 30
0.0
 11
1437.99213946181
 21
2179.088823486745
 31
0.0
  0
LINE
  5
F5
330
2
100
AcDbEntity
  8
1
100
AcDbLine
 10
1271.992139461809
 20
1344.050893279094
 30
0.0
 11
1271.992139461809
 21
2339.050893279102
 31
0.0
  0
LINE
  5
F6
330
2
100
AcDbEntity
  8
1
100
AcDbLine
 10
1271.992139461809
 20
1544.430618956063
 30
0.0
 11
815.5135477659495
 21
2000.909210651923
 31
0.0
  0
LINE
  5
F7
330
2
100
AcDbEntity
  8
6
100
AcDbLine
 10
1271.992139461809
 20
1761.320071125543
 30
0.0
 11
1431.674140660247
 21
1375.813618165397
 31
0.0
  0
LINE
  5
F8
330
2
100
AcDbEntity
  8
1
100
AcDbLine
 10
1384.992139461901
 20
2189.050893279185
 30
0.0
 11
1384.992139461901
 21
1379.050893279185
 31
0.0
  0
LINE
  5
F9
330
2
100
AcDbEntity
  8
1
100
AcDbLine
 10
1324.992139461901
 20
2189.050893279185
 30
0.0
 11
1324.992139461901
 21
1379.050893279185
 31
0.0
  0
ARC
  5
FA
330
2
100
AcDbEntity
  8
1
100
AcDbCircle
 10
1354.992139461809
 20
1344.050893279094
 30
0.0
 40
850.0000000000058
100
AcDbArc
 50
95.60369368369682
 51
357.6400948288626
  0
ARC
  5
FB
330
2
100
AcDbEntity
  8
1
100
AcDbCircle
 10
1354.992139461809
 20
1344.050893279094
 30
0.0
 40
895.0000000000059
100
AcDbArc
 50
95.32110914729518
 51
357.7588114382544
  0
LINE
  5
FC
330
2
100
AcDbEntity
  8
1
100
AcDbLine
 10
1271.992139461809
 20
1468.26917158033
 30
0.0
 11
605.2101148962001
 21
1744.459329301997
 31
0.0
  0
DIMENSION
  5
FD
330
2
100
AcDbEntity
  8
0
100
AcDbDimension
  2
*D10
 10
1354.992139461806
 20
1344.050893279094
 30
0.0
 11
979.5728690777469
 21
1624.163069119531
 31
0.0
 70
   132
  3
STANDARD
100
AcDbRadialDimension
 15
637.6623765051411
 25
1879.273287407501
 35
0.0
 40
0.0
1001
ACAD
1000
DSTYLE
1002
{
1070
   140
1040
3.0
1070
    41
1040
3.0
1002
}
  0
DIMENSION
  5
106
330
2
100
AcDbEntity
  8
0
100
AcDbDimension
  2
*D29
 10
2274.972271372216
 20
-171.4490348907002
 30
0.0
 11
1792.472271372217
 21
-121.4490348907002
 31
0.0
  3
STANDARD
100
AcDbAlignedDimension
 13
1309.972271372216
 23
-329.3891603968859
 33
0.0
 14
2274.972271372216
 24
-329.3891603968863
 34
0.0
100
AcDbRotatedDimension
1001
ACAD
1000
DSTYLE
1002
{
1070
    41
1040
3.0
1070
   140
1040
3.0
1002
}
  0
LINE
  5
113
330
2
100
AcDbEntity
  8
6
100
AcDbLine
 10
1309.972271372216
 20
-394.3891603968932
 30
0.0
 11
2209.972271372242
 21
-394.3891603968932
 31
0.0
  0
LINE
  5
114
330
2
100
AcDbEntity
  8
1
100
AcDbLine
 10
2274.972271372216
 20
-329.3891603968863
 30
0.0
 11
1309.972271372216
 21
-329.3891603968859
 31
0.0
  0
DIMENSION
  5
115
330
2
100
AcDbEntity
  8
0
100
AcDbDimension
  2
*D26
 10
1583.685579383258
 20
-1294.389160396886
 30
0.0
 11
1533.685579383258
 21
-1266.889160396885
 31
0.0
  3
STANDARD
100
AcDbAlignedDimension
 13
1364.972271372242
 23
-1239.389160396886
 33
0.0
 14
1364.631123523882
 24
-1294.389160396885
 34
0.0
 50
90.0
100
AcDbRotatedDimension
1001
ACAD
1000
DSTYLE
1002
{
1070
    41
1040
3.0
1070
   140
1040
3.0
1002
}
  0
LINE
  5
124
330
2
100
AcDbEntity
  8
1
100
AcDbLine
 10
1319.708158748197
 20
-1270.632721467098
 30
0.0
 11
1794.036905215904
 21
-1957.81654640745
 31
0.0
  0
LINE
  5
125
330
2
100
AcDbEntity
  8
6
100
AcDbLine
 10
1410.236383996338
 20
-1270.632721467185
 30
0.0
 11
1884.564963225673
 21
-583.4491388134447
 31
0.0
  0
LINE
  5
126
330
2
100
AcDbEntity
  8
6
100
AcDbLine
 10
1419.571259447586
 20
-1246.018677811067
 30
0.0
 11
1520.218223758482
 21
-417.1163518898774
 31
0.0
  0
ARC
  5
127
330
2
100
AcDbEntity
  8
1
100
AcDbCircle
 10
1364.972031583993
 20
-1239.389393374358
 30
0.0
 40
830.7999999999999
100
AcDbArc
 50
93.79581180747594
 51
356.2041877217168
  0
ARC
  5
128
330
2
100
AcDbEntity
  8
1
100
AcDbCircle
 10
1364.972031583993
 20
-1239.389393374358
 30
0.0
 40
805.7999999999999
100
AcDbArc
 50
93.91375785870566
 51
356.0862416559036
  0
ARC
  5
129
330
2
100
AcDbEntity
  8
1
100
AcDbCircle
 10
1364.972031583993
 20
-1239.389393374358
 30
0.0
 40
836.8
100
AcDbArc
 50
93.76855572496319
 51
356.2314438077443
  0
DIMENSION
  5
12A
330
2
100
AcDbEntity
  8
0
100
AcDbDimension
  2
*D23
 10
2201.772054679173
 20
-2252.789044377323
 30
0.0
 11
1364.972043131583
 21
-2182.789044377323
 31
0.0
  3
STANDARD
100
AcDbAlignedDimension
 13
528.172031583993
 23
-1417.068948796159
 33
0.0
 14
2201.772054679173
 24
-1404.394493826699
 34
0.0
100
AcDbRotatedDimension
1001
ACAD
1000
DSTYLE
1002
{
1070
    41
1040
3.0
1070
   140
1040
5.0
1002
}
  0
LINE
  5
137
330
2
100
AcDbEntity
  8
6
100
AcDbLine
 10
1390.532045834608
 20
-1288.089241807849
 30
0.0
 11
2129.879278759996
 21
-900.0498797476065
 31
0.0
  0
ARC
  5
138
330
2
100
AcDbEntity
  8
6
100
AcDbCircle
 10
1364.972271372289
 20
-1239.389160396975
 30
0.0
 40
805.7997839326935
100
AcDbArc
 50
356.086224000435
 51
93.91377599961685
  0
ARC
  5
139
330
2
100
AcDbEntity
  8
6
100
AcDbCircle
 10
1364.972271372289
 20
-1239.389160396975
 30
0.0
 40
830.7997834079516
100
AcDbArc
 50
356.2041706281854
 51
93.79582937181629
  0
ARC
  5
13A
330
2
100
AcDbEntity
  8
6
100
AcDbCircle
 10
1364.972271372289
 20
-1239.389160396976
 30
0.0
 40
836.7997833068841
100
AcDbArc
 50
356.2314268438973
 51
93.76857315610399
  0
LINE
  5
13B
330
2
100
AcDbEntity
  8
5
 62
   180
100
AcDbLine
 10
2274.972271372217
 20
-1294.389160396885
 30
0.0
 11
1364.972271372216
 21
-1294.389160396885
 31
0.0
  0
LINE
  5
13C
330
2
100
AcDbEntity
  8
1
100
AcDbLine
 10
1364.972271372242
 20
-1294.389160396885
 30
0.0
 11
2199.962609750875
 21
-1294.389160396885
 31
0.0
  0
LINE
  5
13D
330
2
100
AcDbEntity
  8
1
100
AcDbLine
 10
1339.412496909886
 20
-1288.089241807798
 30
0.0
 11
2078.759848520863
 21
-1676.128666159045
 31
0.0
  0
LINE
  5
13E
330
2
100
AcDbEntity
  8
1
100
AcDbLine
 10
1278.310138263374
 20
1312.288168392793
 30
0.0
 11
1602.036573087838
 21
530.7434189408813
 31
0.0
  0
LINE
  5
13F
330
2
100
AcDbEntity
  8
1
100
AcDbLine
 10
1296.302276623328
 20
1285.361030440614
 30
0.0
 11
1894.470731157671
 21
687.1925759062697
 31
0.0
  0
LINE
  5
140
330
2
100
AcDbEntity
  8
1
100
AcDbLine
 10
1323.229414575507
 20
1267.36889208066
 30
0.0
 11
2104.77416402742
 21
943.6424572561973
 31
0.0
  0
LINE
  5
141
330
2
100
AcDbEntity
  8
5
 62
   180
100
AcDbLine
 10
1354.99213946181
 20
1261.050893279098
 30
0.0
 11
2200.930080448032
 21
1261.050893279098
 31
0.0
  0
DIMENSION
  5
142
330
2
100
AcDbEntity
  8
0
100
AcDbDimension
  2
*D13
 10
1597.301361048161
 20
1261.050893279097
 30
0.0
 11
1547.301361048161
 21
1302.55089327914
 31
0.0
  3
STANDARD
100
AcDbAlignedDimension
 13
1354.992139461725
 23
1344.050893279181
 33
0.0
 14
1354.99213946181
 24
1261.050893279098
 34
0.0
 50
90.0
100
AcDbRotatedDimension
1001
ACAD
1000
DSTYLE
1002
{
1070
   140
1040
3.0
1070
    41
1040
3.0
1002
}
  0
DIMENSION
  5
151
330
2
100
AcDbEntity
  8
0
100
AcDbDimension
  2
*D9
 10
2249.992139461816
 20
232.0682067024845
 30
0.0
 11
1354.992139461809
 21
302.0682067024845
 31
0.0
  3
STANDARD
100
AcDbAlignedDimension
 13
459.9921394618036
 23
1115.521827399194
 33
0.0
 14
2249.992139461816
 24
1121.641877237829
 34
0.0
100
AcDbRotatedDimension
1001
ACAD
1000
DSTYLE
1002
{
1070
    41
1040
3.0
1070
   140
1040
5.0
1002
}
  0
DIMENSION
  5
15E
330
2
100
AcDbEntity
  8
0
100
AcDbDimension
  2
*D27
 10
377.9082563896663
 20
-2076.189393374357
 30
0.0
 11
307.9082563896667
 21
-1239.389385232225
 31
0.0
  3
STANDARD
100
AcDbAlignedDimension
 13
1201.722311123336
 23
-402.5893770900929
 33
0.0
 14
1211.23065098653
 24
-2076.189393374358
 34
0.0
 50
90.0
100
AcDbRotatedDimension
1001
ACAD
1000
DSTYLE
1002
{
1070
    41
1040
3.0
1070
   140
1040
5.0
1002
}
  0
LINE
  5
16B
330
2
100
AcDbEntity
  8
4
100
AcDbLine
 10
1364.972271372242
 20
-394.389160396895
 30
0.0
 11
1364.972271372242
 21
-1190.976868569292
 31
0.0
  0
LINE
  5
16C
330
2
100
AcDbEntity
  8
1
100
AcDbLine
 10
1309.972271372216
 20
-1117.184173458987
 30
0.0
 11
776.4446044137821
 21
-644.5199056138808
 31
0.0
  0
LINE
  5
16D
330
2
100
AcDbEntity
  8
1
100
AcDbLine
 10
1309.972271372216
 20
-1239.389160396886
 30
0.0
 11
1309.972271372216
 21
-329.3891603968859
 31
0.0
  0
LINE
  5
16E
330
2
100
AcDbEntity
  8
1
100
AcDbLine
 10
1377.472271372242
 20
-394.3891603968932
 30
0.0
 11
1377.472271372242
 21
-1190.976868569292
 31
0.0
  0
LINE
  5
16F
330
2
100
AcDbEntity
  8
1
100
AcDbLine
 10
1352.472271372242
 20
-394.389160396895
 30
0.0
 11
1352.472271372242
 21
-1190.976868569292
 31
0.0
  0
LINE
  5
170
330
2
100
AcDbEntity
  8
1
100
AcDbLine
 10
1309.972271372216
 20
-939.2638738131337
 30
0.0
 11
1120.30648476998
 21
-439.1562959569873
 31
0.0
  0
DIMENSION
  5
171
330
2
100
AcDbEntity
  8
0
100
AcDbDimension
  2
*D24
 10
1364.972031583989
 20
-1239.389393374361
 30
0.0
 11
993.6612505603987
 21
-965.6293712971343
 31
0.0
 70
   132
  3
STANDARD
100
AcDbRadialDimension
 15
691.442190943997
 25
-742.8092953363227
 35
0.0
 40
0.0
1001
ACAD
1000
DSTYLE
1002
{
1070
    41
1040
3.0
1070
   140
1040
3.0
1002
}
  0
LINE
  5
17A
330
2
100
AcDbEntity
  8
1
100
AcDbLine
 10
1310.373283296992
 20
-1246.018677810962
 30
0.0
 11
1411.020300290527
 21
-2074.921437612718
 31
0.0
  0
CIRCLE
  5
17B
330
2
100
AcDbEntity
  8
3
100
AcDbCircle
 10
1429.474861380114
 20
-2055.142756631723
 30
0.0
 40
11.0
  0
LINE
  5
17D
330
2
100
AcDbEntity
  8
1
100
AcDbLine
 10
1309.972271372216
 20
-1169.186847228071
 30
0.0
 11
567.4072245261777
 21
-986.1610013192203
 31
0.0
  0
LINE
  5
17E
330
2
100
AcDbEntity
  8
1
100
AcDbLine
 10
1309.972271372216
 20
-1196.29941216163
 30
0.0
 11
541.0823858444528
 21
-1385.813748053411
 31
0.0
  0
LINE
  5
17F
330
2
100
AcDbEntity
  8
1
100
AcDbLine
 10
1309.972271372216
 20
-1214.635669759909
 30
0.0
 11
703.5008650492109
 21
-1751.9224516673
 31
0.0
  0
CIRCLE
  5
180
330
2
100
AcDbEntity
  8
3
100
AcDbCircle
 10
730.2618705826607
 20
-1755.87461132189
 30
0.0
 40
11.0
  0
TEXT
  5
181
330
2
100
AcDbEntity
  8
3
100
AcDbText
 10
713.7922319674944
 20
-1532.412077384639
 30
0.0
 40
60.0
  1
８
 72
     1
 11
741.7922319674944
 21
-1502.412077384638
 31
0.0
100
AcDbText
 73
     2
  0
CIRCLE
  5
182
330
2
100
AcDbEntity
  8
3
100
AcDbCircle
 10
562.9413653800656
 20
-1401.749684296528
 30
0.0
 40
11.0
  0
TEXT
  5
183
330
2
100
AcDbEntity
  8
3
100
AcDbText
 10
662.9409061117967
 20
-1212.678182462032
 30
0.0
 40
60.0
  1
７
 72
     1
 11
690.9409061117967
 21
-1182.678182462032
 31
0.0
100
AcDbText
 73
     2
  0
CIRCLE
  5
184
330
2
100
AcDbEntity
  8
3
100
AcDbCircle
 10
579.3564752200818
 20
-1010.429917902203
 30
0.0
 40
11.0
  0
TEXT
  5
185
330
2
100
AcDbEntity
  8
3
100
AcDbText
 10
766.5020430787572
 20
-905.9360891429442
 30
0.0
 40
60.0
  1
６
 72
     1
 11
794.5020430787572
 21
-875.9360891429441
 31
0.0
100
AcDbText
 73
     2
  0
LINE
  5
186
330
2
100
AcDbEntity
  8
1
100
AcDbLine
 10
1309.972271372216
 20
-1229.310036327549
 30
0.0
 11
1017.454533108406
 21
-2000.615922242916
 31
0.0
  0
TEXT
  5
187
330
2
100
AcDbEntity
  8
3
100
AcDbText
 10
907.406594717222
 20
-1791.890591795144
 30
0.0
 40
60.0
  1
９
 72
     1
 11
935.4065947172221
 21
-1761.890591795144
 31
0.0
100
AcDbText
 73
     2
  0
CIRCLE
  5
188
330
2
100
AcDbEntity
  8
3
100
AcDbCircle
 10
1042.986879516633
 20
-1991.678945864783
 30
0.0
 40
11.0
  0
TEXT
  5
189
330
2
100
AcDbEntity
  8
3
100
AcDbText
 10
1159.429277161029
 20
-1931.670325097181
 30
0.0
 40
60.0
  1
１０
 72
     1
 11
1227.429277161029
 21
-1901.670325097181
 31
0.0
100
AcDbText
 73
     2
  0
LINE
  5
18A
330
2
100
AcDbEntity
  8
6
100
AcDbLine
 10
1309.972271372216
 20
-939.2638738131337
 30
0.0
 11
1416.398164719865
 21
-1219.885891609574
 31
0.0
  0
CIRCLE
  5
18B
330
2
100
AcDbEntity
  8
3
100
AcDbCircle
 10
1364.972271372242
 20
-1239.389160396886
 30
0.0
 40
50.0
  0
CIRCLE
  5
18C
330
2
100
AcDbEntity
  8
6
100
AcDbCircle
 10
1364.972271372242
 20
-1239.389160396886
 30
0.0
 40
55.0
  0
LINE
  5
18D
330
2
100
AcDbEntity
  8
6
100
AcDbLine
 10
1309.972271372216
 20
-1169.186847228071
 30
0.0
 11
1378.1344959746
 21
-1185.987326687574
 31
0.0
  0
LINE
  5
18E
330
2
100
AcDbEntity
  8
6
100
AcDbLine
 10
1309.972271372216
 20
-1196.29941216163
 30
0.0
 11
1351.809909836558
 21
-1185.987360438633
 31
0.0
  0
ARC
  5
18F
330
2
100
AcDbEntity
  8
1
100
AcDbCircle
 10
1364.972271372216
 20
-1239.389160396886
 30
0.0
 40
55.0
100
AcDbArc
 50
180.0
 51
270.0
  0
LINE
  5
190
330
2
100
AcDbEntity
  8
6
100
AcDbLine
 10
1309.972271372216
 20
-1117.184173458987
 30
0.0
 11
1401.443926306261
 21
-1198.220988390179
 31
0.0
  0
LINE
  5
191
330
2
100
AcDbEntity
  8
6
100
AcDbLine
 10
1309.972271372216
 20
-1214.635669759909
 30
0.0
 11
1328.50052516916
 21
-1198.221069247612
 31
0.0
  0
LINE
  5
192
330
2
100
AcDbEntity
  8
6
100
AcDbLine
 10
1309.972271372216
 20
-1229.310036327551
 30
0.0
 11
1313.546327382721
 21
-1219.886025141582
 31
0.0
  0
CIRCLE
  5
193
330
2
100
AcDbEntity
  8
3
100
AcDbCircle
 10
1364.972271372242
 20
-1092.683014483094
 30
0.0
 40
9.0
  0
LINE
  5
194
330
2
100
AcDbEntity
  8
1
100
AcDbLine
 10
850.6013703886409
 20
-394.3891603968927
 30
0.0
 11
900.6013703886374
 21
-344.3891603968963
 31
0.0
  0
LINE
  5
195
330
2
100
AcDbEntity
  8
1
100
AcDbLine
 10
828.1507300859685
 20
-394.3891603968927
 30
0.0
 11
878.1507300859644
 21
-344.3891603968968
 31
0.0
  0
LINE
  5
196
330
2
100
AcDbEntity
  8
1
100
AcDbLine
 10
1309.972271372216
 20
-394.3891603968932
 30
0.0
 11
456.5432289994914
 21
-394.3891603968932
 31
0.0
  0
LINE
  5
197
330
2
100
AcDbEntity
  8
1
100
AcDbLine
 10
536.2924061512203
 20
-394.3891603968932
 30
0.0
 11
586.2924061512167
 21
-344.3891603968968
 31
0.0
  0
LINE
  5
198
330
2
100
AcDbEntity
  8
1
100
AcDbLine
 10
513.8417658485478
 20
-394.3891603968927
 30
0.0
 11
563.8417658485436
 21
-344.3891603968968
 31
0.0
  0
DIMENSION
  5
199
330
2
100
AcDbEntity
  8
0
100
AcDbDimension
  2
*D45
 10
377.9082563896666
 20
-402.5893770900927
 30
0.0
 11
307.9082563896668
 21
-398.4892687434928
 31
0.0
  1
８
  3
STANDARD
100
AcDbAlignedDimension
 13
456.5432289994914
 23
-394.3891603968932
 33
0.0
 14
377.9082563896666
 24
-402.5893770900927
 34
0.0
 50
90.0
100
AcDbRotatedDimension
1001
ACAD
1000
DSTYLE
1002
{
1070
   140
1040
5.0
1002
}
  0
LINE
  5
1A7
330
2
100
AcDbEntity
  8
1
100
AcDbLine
 10
491.3911255458751
 20
-394.3891603968927
 30
0.0
 11
541.391125545871
 21
-344.3891603968968
 31
0.0
  0
LINE
  5
1A8
330
2
100
AcDbEntity
  8
1
100
AcDbLine
 10
468.9404852432017
 20
-394.3891603968932
 30
0.0
 11
518.940485243198
 21
-344.3891603968968
 31
0.0
  0
LINE
  5
1A9
330
2
100
AcDbEntity
  8
1
100
AcDbLine
 10
456.543228999491
 20
-384.3357763379308
 30
0.0
 11
496.489844940525
 21
-344.3891603968968
 31
0.0
  0
LINE
  5
1AA
330
2
100
AcDbEntity
  8
1
100
AcDbLine
 10
456.5432289994914
 20
-361.8851360352578
 30
0.0
 11
474.0392046378524
 21
-344.3891603968968
 31
0.0
  0
CIRCLE
  5
1AB
330
2
100
AcDbEntity
  8
3
100
AcDbCircle
 10
775.7466962618819
 20
-671.5619547054394
 30
0.0
 40
11.0
  0
LINE
  5
1AC
330
2
100
AcDbEntity
  8
1
100
AcDbLine
 10
693.4468882699311
 20
-394.3891603968927
 30
0.0
 11
743.446888269927
 21
-344.3891603968968
 31
0.0
  0
LINE
  5
1AD
330
2
100
AcDbEntity
  8
1
100
AcDbLine
 10
670.9962479672576
 20
-394.3891603968932
 30
0.0
 11
720.996247967254
 21
-344.3891603968968
 31
0.0
  0
LINE
  5
1AE
330
2
100
AcDbEntity
  8
1
100
AcDbLine
 10
648.545607664585
 20
-394.3891603968927
 30
0.0
 11
698.5456076645814
 21
-344.3891603968963
 31
0.0
  0
LINE
  5
1AF
330
2
100
AcDbEntity
  8
1
100
AcDbLine
 10
626.0949673619125
 20
-394.3891603968927
 30
0.0
 11
676.0949673619084
 21
-344.3891603968968
 31
0.0
  0
LINE
  5
1B0
330
2
100
AcDbEntity
  8
1
100
AcDbLine
 10
603.644327059239
 20
-394.3891603968932
 30
0.0
 11
653.6443270592354
 21
-344.3891603968968
 31
0.0
  0
LINE
  5
1B1
330
2
100
AcDbEntity
  8
1
100
AcDbLine
 10
581.1936867565663
 20
-394.3891603968927
 30
0.0
 11
631.1936867565627
 21
-344.3891603968963
 31
0.0
  0
LINE
  5
1B2
330
2
100
AcDbEntity
  8
1
100
AcDbLine
 10
558.7430464538938
 20
-394.3891603968927
 30
0.0
 11
608.7430464538897
 21
-344.3891603968968
 31
0.0
  0
LINE
  5
1B3
330
2
100
AcDbEntity
  8
1
100
AcDbLine
 10
805.7000897832949
 20
-394.3891603968932
 30
0.0
 11
855.7000897832914
 21
-344.3891603968968
 31
0.0
  0
LINE
  5
1B4
330
2
100
AcDbEntity
  8
1
100
AcDbLine
 10
783.2494494806224
 20
-394.3891603968927
 30
0.0
 11
833.2494494806187
 21
-344.3891603968963
 31
0.0
  0
LINE
  5
1B5
330
2
100
AcDbEntity
  8
1
100
AcDbLine
 10
760.7988091779498
 20
-394.3891603968927
 30
0.0
 11
810.7988091779457
 21
-344.3891603968968
 31
0.0
  0
LINE
  5
1B6
330
2
100
AcDbEntity
  8
1
100
AcDbLine
 10
738.3481688752763
 20
-394.3891603968932
 30
0.0
 11
788.3481688752726
 21
-344.3891603968968
 31
0.0
  0
LINE
  5
1B7
330
2
100
AcDbEntity
  8
1
100
AcDbLine
 10
715.8975285726037
 20
-394.3891603968927
 30
0.0
 11
765.8975285726
 21
-344.3891603968963
 31
0.0
  0
LINE
  5
1B8
330
2
100
AcDbEntity
  8
1
100
AcDbLine
 10
1164.910334626061
 20
-394.3891603968927
 30
0.0
 11
1214.910334626057
 21
-344.3891603968968
 31
0.0
  0
LINE
  5
1B9
330
2
100
AcDbEntity
  8
1
100
AcDbLine
 10
1142.459694323388
 20
-394.3891603968932
 30
0.0
 11
1192.459694323384
 21
-344.3891603968968
 31
0.0
  0
TEXT
  5
1BA
330
2
100
AcDbEntity
  8
3
100
AcDbText
 10
998.7510344362435
 20
-682.456714363825
 30
0.0
 40
60.0
  1
５
 72
     1
 11
1028.751034436243
 21
-652.456714363825
 31
0.0
100
AcDbText
 73
     2
  0
LINE
  5
1BB
330
2
100
AcDbEntity
  8
1
100
AcDbLine
 10
1007.755852507351
 20
-394.3891603968932
 30
0.0
 11
1057.755852507347
 21
-344.3891603968968
 31
0.0
  0
LINE
  5
1BC
330
2
100
AcDbEntity
  8
1
100
AcDbLine
 10
985.3052122046783
 20
-394.3891603968927
 30
0.0
 11
1035.305212204674
 21
-344.3891603968963
 31
0.0
  0
LINE
  5
1BD
330
2
100
AcDbEntity
  8
1
100
AcDbLine
 10
962.8545719020058
 20
-394.3891603968927
 30
0.0
 11
1012.854571902001
 21
-344.3891603968968
 31
0.0
  0
LINE
  5
1BE
330
2
100
AcDbEntity
  8
1
100
AcDbLine
 10
940.4039315993323
 20
-394.3891603968932
 30
0.0
 11
990.4039315993285
 21
-344.3891603968968
 31
0.0
  0
LINE
  5
1BF
330
2
100
AcDbEntity
  8
1
100
AcDbLine
 10
917.9532912966596
 20
-394.3891603968927
 30
0.0
 11
967.9532912966561
 21
-344.3891603968963
 31
0.0
  0
LINE
  5
1C0
330
2
100
AcDbEntity
  8
1
100
AcDbLine
 10
895.5026509939871
 20
-394.3891603968927
 30
0.0
 11
945.502650993983
 21
-344.3891603968968
 31
0.0
  0
LINE
  5
1C1
330
2
100
AcDbEntity
  8
1
100
AcDbLine
 10
873.0520106913136
 20
-394.3891603968932
 30
0.0
 11
923.05201069131
 21
-344.3891603968968
 31
0.0
  0
LINE
  5
1C2
330
2
100
AcDbEntity
  8
1
100
AcDbLine
 10
1120.009054020715
 20
-394.3891603968927
 30
0.0
 11
1170.009054020712
 21
-344.3891603968963
 31
0.0
  0
LINE
  5
1C3
330
2
100
AcDbEntity
  8
1
100
AcDbLine
 10
1097.558413718042
 20
-394.3891603968927
 30
0.0
 11
1147.558413718038
 21
-344.3891603968968
 31
0.0
  0
LINE
  5
1C4
330
2
100
AcDbEntity
  8
1
100
AcDbLine
 10
1075.107773415369
 20
-394.3891603968932
 30
0.0
 11
1125.107773415366
 21
-344.3891603968968
 31
0.0
  0
LINE
  5
1C5
330
2
100
AcDbEntity
  8
1
100
AcDbLine
 10
1052.657133112697
 20
-394.3891603968927
 30
0.0
 11
1102.657133112693
 21
-344.3891603968963
 31
0.0
  0
LINE
  5
1C6
330
2
100
AcDbEntity
  8
1
100
AcDbLine
 10
1030.206492810024
 20
-394.3891603968927
 30
0.0
 11
1080.20649281002
 21
-344.3891603968968
 31
0.0
  0
CIRCLE
  5
1C7
330
2
100
AcDbEntity
  8
3
100
AcDbCircle
 10
1107.12139562352
 20
-462.7763612729577
 30
0.0
 40
11.0
  0
TEXT
  5
1C8
330
2
100
AcDbEntity
  8
3
100
AcDbText
 10
1222.291312560386
 20
-593.4364896681454
 30
0.0
 40
60.0
  1
４
 72
     1
 11
1250.291312560386
 21
-563.4364896681454
 31
0.0
100
AcDbText
 73
     2
  0
CIRCLE
  5
1C9
330
2
100
AcDbEntity
  8
3
100
AcDbCircle
 10
1364.972271372242
 20
-792.6830144830947
 30
0.0
 40
9.0
  0
DIMENSION
  5
1CA
330
2
100
AcDbEntity
  8
0
100
AcDbDimension
  2
*D25
 10
1309.972271372216
 20
-299.7554292833829
 30
0.0
 11
1337.472271372229
 21
-299.7554292833829
 31
0.0
 70
   128
  3
STANDARD
100
AcDbAlignedDimension
 13
1364.972271372242
 23
-394.3891603968932
 33
0.0
 14
1309.972271372216
 24
-329.3891603968859
 34
0.0
100
AcDbRotatedDimension
1001
ACAD
1000
DSTYLE
1002
{
1070
    41
1040
3.0
1070
   140
1040
3.0
1002
}
  0
LINE
  5
1D9
330
2
100
AcDbEntity
  8
1
100
AcDbLine
 10
1277.163536139425
 20
-394.3891603968932
 30
0.0
 11
1309.972271372213
 21
-361.5804251641052
 31
0.0
  0
LINE
  5
1DA
330
2
100
AcDbEntity
  8
1
100
AcDbLine
 10
1254.712895836753
 20
-394.3891603968927
 30
0.0
 11
1304.712895836749
 21
-344.3891603968963
 31
0.0
  0
LINE
  5
1DB
330
2
100
AcDbEntity
  8
1
100
AcDbLine
 10
1232.26225553408
 20
-394.3891603968927
 30
0.0
 11
1282.262255534076
 21
-344.3891603968968
 31
0.0
  0
LINE
  5
1DC
330
2
100
AcDbEntity
  8
1
100
AcDbLine
 10
1209.811615231407
 20
-394.3891603968932
 30
0.0
 11
1259.811615231403
 21
-344.3891603968968
 31
0.0
  0
LINE
  5
1DD
330
2
100
AcDbEntity
  8
1
100
AcDbLine
 10
1187.360974928734
 20
-394.3891603968927
 30
0.0
 11
1237.36097492873
 21
-344.3891603968963
 31
0.0
  0
LINE
  5
1DE
330
2
100
AcDbEntity
  8
1
100
AcDbLine
 10
1299.614176442098
 20
-394.3891603968927
 30
0.0
 11
1309.972271372212
 21
-384.0310654667787
 31
0.0
  0
CIRCLE
  5
1DF
330
2
100
AcDbEntity
  8
3
100
AcDbCircle
 10
1364.972271372242
 20
-492.6830144830947
 30
0.0
 40
9.0
  0
LINE
  5
1E0
330
2
100
AcDbEntity
  8
1
100
AcDbLine
 10
1271.992139461808
 20
1427.050893279094
 30
0.0
 11
509.0541984755873
 21
1427.050893279094
 31
0.0
  0
LINE
  5
1E1
330
2
100
AcDbEntity
  8
1
100
AcDbLine
 10
1271.992139461808
 20
1399.509720226396
 30
0.0
 11
541.6846651235955
 21
1097.006459653068
 31
0.0
  0
LINE
  5
1E2
330
2
100
AcDbEntity
  8
1
100
AcDbLine
 10
1271.992139461808
 20
1378.430618956059
 30
0.0
 11
698.1338220889829
 21
804.5723015832354
 31
0.0
  0
TEXT
  5
1E3
330
2
100
AcDbEntity
  8
3
100
AcDbText
 10
772.7002958741032
 20
968.3544819169801
 30
0.0
 40
60.0
  1
６
100
AcDbText
  0
TEXT
  5
1E4
330
2
100
AcDbEntity
  8
3
100
AcDbText
 10
659.3381879103299
 20
1259.832973508353
 30
0.0
 40
60.0
  1
５
100
AcDbText
  0
TEXT
  5
1E5
330
2
100
AcDbEntity
  8
3
100
AcDbText
 10
673.683045054815
 20
1518.019785124219
 30
0.0
 40
60.0
  1
４
100
AcDbText
  0
LINE
  5
1E6
330
2
100
AcDbEntity
  8
1
100
AcDbLine
 10
1271.992139461808
 20
1360.5606197716
 30
0.0
 11
954.5837034389096
 21
594.268868713485
 31
0.0
  0
LINE
  5
1E7
330
2
100
AcDbEntity
  8
1
100
AcDbLine
 10
1271.99213946181
 20
1344.050893279094
 30
0.0
 11
1271.99213946181
 21
498.1129522928731
 31
0.0
  0
TEXT
  5
1E8
330
2
100
AcDbEntity
  8
3
100
AcDbText
 10
1137.82255555966
 20
712.4091834221044
 30
0.0
 40
60.0
  1
８
100
AcDbText
  0
TEXT
  5
1E9
330
2
100
AcDbEntity
  8
3
100
AcDbText
 10
899.3302638005861
 20
803.2027243864213
 30
0.0
 40
60.0
  1
７
100
AcDbText
  0
TEXT
  5
1EA
330
2
100
AcDbEntity
  8
3
100
AcDbText
 10
1367.036851040017
 20
694.0564269445822
 30
0.0
 40
60.0
  1
９
100
AcDbText
  0
CIRCLE
  5
1EB
330
2
100
AcDbEntity
  8
6
100
AcDbCircle
 10
1354.992139461809
 20
1344.050893279094
 30
0.0
 40
83.0
  0
ARC
  5
1EC
330
2
100
AcDbEntity
  8
1
100
AcDbCircle
 10
1354.992139461809
 20
1344.050893279094
 30
0.0
 40
73.0
100
AcDbArc
 50
114.2650859026114
 51
65.73491409723647
  0
LINE
  5
1ED
330
2
100
AcDbEntity
  8
6
100
AcDbLine
 10
1271.992139461809
 20
1427.050893279094
 30
0.0
 11
1354.99213946181
 21
1427.050893279094
 31
0.0
  0
LINE
  5
1EE
330
2
100
AcDbEntity
  8
6
100
AcDbLine
 10
1271.992139461809
 20
1544.430618956061
 30
0.0
 11
1413.682002300292
 21
1402.740756117578
 31
0.0
  0
LINE
  5
1EF
330
2
100
AcDbEntity
  8
6
100
AcDbLine
 10
1271.992139461809
 20
1468.26917158033
 30
0.0
 11
1386.754864348112
 21
1420.732894477532
 31
0.0
  0
CIRCLE
  5
1F0
330
2
100
AcDbEntity
  8
1
100
AcDbCircle
 10
1354.99213946181
 20
1344.050893279094
 30
0.0
 40
30.0
  0
LINE
  5
1F1
330
2
100
AcDbEntity
  8
1
100
AcDbLine
 10
1319.99213946181
 20
1379.050893279094
 30
0.0
 11
1389.99213946181
 21
1309.050893279094
 31
0.0
  0
LINE
  5
1F2
330
2
100
AcDbEntity
  8
1
100
AcDbLine
 10
1389.99213946181
 20
1379.050893279094
 30
0.0
 11
1319.99213946181
 21
1309.050893279094
 31
0.0
  0
LWPOLYLINE
  5
1F3
330
2
100
AcDbEntity
  8
1
100
AcDbPolyline
 90
        4
 70
     1
 43
0.0
 10
1319.99213946181
 20
1309.050893279094
 10
1389.99213946181
 20
1309.050893279094
 10
1389.99213946181
 20
1379.050893279094
 10
1319.99213946181
 20
1379.050893279094
  0
LINE
  5
1F4
330
2
100
AcDbEntity
  8
6
100
AcDbLine
 10
1271.992139461809
 20
1399.509720226396
 30
0.0
 11
1323.229414575507
 21
1420.732894477531
 31
0.0
  0
LINE
  5
1F5
330
2
100
AcDbEntity
  8
6
100
AcDbLine
 10
1271.992139461809
 20
1360.5606197716
 30
0.0
 11
1278.310138263375
 21
1375.813618165397
 31
0.0
  0
LINE
  5
1F6
330
2
100
AcDbEntity
  8
6
100
AcDbLine
 10
1271.992139461809
 20
1378.430618956059
 30
0.0
 11
1296.302276623327
 21
1402.740756117577
 31
0.0
  0
DIMENSION
  5
1F7
330
2
100
AcDbEntity
  8
0
100
AcDbDimension
  2
*D28
 10
2425.596148202443
 20
-1294.389160396885
 30
0.0
 11
2375.596148202443
 21
-811.8891603968858
 31
0.0
  3
STANDARD
100
AcDbAlignedDimension
 13
2274.972271372216
 23
-329.3891603968863
 33
0.0
 14
2274.972271372217
 24
-1294.389160396885
 34
0.0
 50
90.0
100
AcDbRotatedDimension
1001
ACAD
1000
DSTYLE
1002
{
1070
    41
1040
3.0
1070
   140
1040
3.0
1002
}
  0
LINE
  5
204
330
2
100
AcDbEntity
  8
6
100
AcDbLine
 10
2209.972271372242
 20
-394.3891603968932
 30
0.0
 11
2209.972271372242
 21
-1294.389160396885
 31
0.0
  0
LINE
  5
205
330
2
100
AcDbEntity
  8
1
100
AcDbLine
 10
2274.972271372217
 20
-1294.389160396885
 30
0.0
 11
2274.972271372216
 21
-329.3891603968863
 31
0.0
  0
LINE
  5
206
330
2
100
AcDbEntity
  8
1
100
AcDbLine
 10
2209.972271372242
 20
-2053.051732866122
 30
0.0
 11
2259.972271372242
 21
-2003.051732866122
 31
0.0
  0
LINE
  5
207
330
2
100
AcDbEntity
  8
1
100
AcDbLine
 10
2209.972271372242
 20
-2030.601092563449
 30
0.0
 11
2259.972271372241
 21
-1980.601092563449
 31
0.0
  0
LINE
  5
208
330
2
100
AcDbEntity
  8
1
100
AcDbLine
 10
2209.972271372242
 20
-1294.389160396885
 30
0.0
 11
2209.972271372242
 21
-2143.554404339988
 31
0.0
  0
DIMENSION
  5
209
330
2
100
AcDbEntity
  8
0
100
AcDbDimension
  2
*D44
 10
2209.972271372242
 20
-2252.789044377323
 30
0.0
 11
2346.638938038908
 21
-2252.789044377323
 31
0.0
 70
   128
  1
８
  3
STANDARD
100
AcDbAlignedDimension
 13
2201.772054679173
 23
-2252.789044377323
 33
0.0
 14
2209.972271372242
 24
-2143.554404339988
 34
0.0
100
AcDbRotatedDimension
1001
ACAD
1000
DSTYLE
1002
{
1070
   140
1040
5.0
1002
}
  0
LINE
  5
217
330
2
100
AcDbEntity
  8
1
100
AcDbLine
 10
2254.173441714413
 20
-2143.554404339988
 30
0.0
 11
2259.972271372242
 21
-2137.755574682159
 31
0.0
  0
LINE
  5
218
330
2
100
AcDbEntity
  8
1
100
AcDbLine
 10
2231.72280141174
 20
-2143.554404339988
 30
0.0
 11
2259.972271372241
 21
-2115.304934379487
 31
0.0
  0
LINE
  5
219
330
2
100
AcDbEntity
  8
1
100
AcDbLine
 10
2209.972271372242
 20
-2142.854294076813
 30
0.0
 11
2259.972271372241
 21
-2092.854294076813
 31
0.0
  0
LINE
  5
21A
330
2
100
AcDbEntity
  8
1
100
AcDbLine
 10
2209.972271372242
 20
-2120.403653774141
 30
0.0
 11
2259.972271372242
 21
-2070.403653774141
 31
0.0
  0
LINE
  5
21B
330
2
100
AcDbEntity
  8
1
100
AcDbLine
 10
2209.972271372242
 20
-2097.953013471468
 30
0.0
 11
2259.972271372241
 21
-2047.953013471468
 31
0.0
  0
LINE
  5
21C
330
2
100
AcDbEntity
  8
1
100
AcDbLine
 10
2209.972271372242
 20
-2075.502373168795
 30
0.0
 11
2259.972271372241
 21
-2025.502373168794
 31
0.0
  0
CIRCLE
  5
21D
330
2
100
AcDbEntity
  8
3
100
AcDbCircle
 10
2031.194285956629
 20
-1134.840338826872
 30
0.0
 40
77.71107808037104
  0
CIRCLE
  5
21E
330
2
100
AcDbEntity
  8
3
100
AcDbCircle
 10
2104.842200237144
 20
-889.8079791970102
 30
0.0
 40
11.0
  0
TEXT
  5
21F
330
2
100
AcDbEntity
  8
3
100
AcDbText
 10
1761.885658434554
 20
-1758.803407589786
 30
0.0
 40
60.0
  1
１２
 72
     1
 11
1831.885658434553
 21
-1728.803407589786
 31
0.0
100
AcDbText
 73
     2
  0
CIRCLE
  5
220
330
2
100
AcDbEntity
  8
3
100
AcDbCircle
 10
1801.186077213282
 20
-1931.727249397832
 30
0.0
 40
11.0
  0
TEXT
  5
221
330
2
100
AcDbEntity
  8
3
100
AcDbText
 10
1488.961402005867
 20
-1919.729424919655
 30
0.0
 40
60.0
  1
１１
 72
     1
 11
1550.961402005867
 21
-1889.729424919655
 31
0.0
100
AcDbText
 73
     2
  0
CIRCLE
  5
222
330
2
100
AcDbEntity
  8
3
100
AcDbCircle
 10
2072.965967074516
 20
-1649.705429552303
 30
0.0
 40
11.0
  0
TEXT
  5
223
330
2
100
AcDbEntity
  8
3
100
AcDbText
 10
1935.84568480358
 20
-1485.758484309104
 30
0.0
 40
60.0
  1
１３
 72
     1
 11
2005.84568480358
 21
-1455.758484309104
 31
0.0
100
AcDbText
 73
     2
  0
TEXT
  5
224
330
2
100
AcDbEntity
  8
3
100
AcDbText
 10
1735.771362532503
 20
-1232.078078093882
 30
0.0
 40
60.0
  1
１
 72
     1
 11
1761.771362532503
 21
-1202.078078093882
 31
0.0
100
AcDbText
 73
     2
  0
TEXT
  5
225
330
2
100
AcDbEntity
  8
3
100
AcDbText
 10
1537.877986070538
 20
-884.6162905569999
 30
0.0
 40
60.0
  1
３
 72
     1
 11
1565.877986070538
 21
-854.616290557
 31
0.0
100
AcDbText
 73
     2
  0
TEXT
  5
226
330
2
100
AcDbEntity
  8
3
100
AcDbText
 10
1699.016071560827
 20
-1039.394726336597
 30
0.0
 40
60.0
  1
２
 72
     1
 11
1727.016071560827
 21
-1009.394726336597
 31
0.0
100
AcDbText
 73
     2
  0
TEXT
  5
227
330
2
100
AcDbEntity
  8
3
100
AcDbText
 10
1962.989335517375
 20
-1163.145956453174
 30
0.0
 40
60.0
  1
１４
 72
     1
 11
2032.989335517375
 21
-1133.145956453174
 31
0.0
100
AcDbText
 73
     2
  0
LINE
  5
228
330
2
100
AcDbEntity
  8
1
100
AcDbLine
 10
2209.972271372242
 20
-1446.884444693954
 30
0.0
 11
2259.972271372242
 21
-1396.884444693954
 31
0.0
  0
LINE
  5
229
330
2
100
AcDbEntity
  8
1
100
AcDbLine
 10
2209.972271372242
 20
-1424.433804391281
 30
0.0
 11
2259.972271372242
 21
-1374.433804391281
 31
0.0
  0
LINE
  5
22A
330
2
100
AcDbEntity
  8
1
100
AcDbLine
 10
2209.972271372242
 20
-1761.193408931374
 30
0.0
 11
2259.972271372241
 21
-1711.193408931374
 31
0.0
  0
LINE
  5
22B
330
2
100
AcDbEntity
  8
1
100
AcDbLine
 10
2209.972271372242
 20
-1738.742768628702
 30
0.0
 11
2259.972271372242
 21
-1688.742768628701
 31
0.0
  0
LINE
  5
22C
330
2
100
AcDbEntity
  8
1
100
AcDbLine
 10
2209.972271372242
 20
-2008.150452260776
 30
0.0
 11
2259.972271372241
 21
-1958.150452260776
 31
0.0
  0
LINE
  5
22D
330
2
100
AcDbEntity
  8
1
100
AcDbLine
 10
2209.972271372242
 20
-1985.699811958103
 30
0.0
 11
2259.972271372242
 21
-1935.699811958103
 31
0.0
  0
LINE
  5
22E
330
2
100
AcDbEntity
  8
1
100
AcDbLine
 10
2209.972271372242
 20
-1963.24917165543
 30
0.0
 11
2259.972271372241
 21
-1913.24917165543
 31
0.0
  0
LINE
  5
22F
330
2
100
AcDbEntity
  8
1
100
AcDbLine
 10
2209.972271372242
 20
-1940.798531352758
 30
0.0
 11
2259.972271372241
 21
-1890.798531352757
 31
0.0
  0
LINE
  5
230
330
2
100
AcDbEntity
  8
1
100
AcDbLine
 10
2209.972271372242
 20
-1918.347891050085
 30
0.0
 11
2259.972271372242
 21
-1868.347891050085
 31
0.0
  0
LINE
  5
231
330
2
100
AcDbEntity
  8
1
100
AcDbLine
 10
2209.972271372242
 20
-1895.897250747412
 30
0.0
 11
2259.972271372241
 21
-1845.897250747412
 31
0.0
  0
LINE
  5
232
330
2
100
AcDbEntity
  8
1
100
AcDbLine
 10
2209.972271372242
 20
-1873.446610444739
 30
0.0
 11
2259.972271372241
 21
-1823.446610444739
 31
0.0
  0
LINE
  5
233
330
2
100
AcDbEntity
  8
1
100
AcDbLine
 10
2209.972271372242
 20
-1850.995970142066
 30
0.0
 11
2259.972271372242
 21
-1800.995970142066
 31
0.0
  0
LINE
  5
234
330
2
100
AcDbEntity
  8
1
100
AcDbLine
 10
2209.972271372242
 20
-1828.545329839393
 30
0.0
 11
2259.972271372241
 21
-1778.545329839393
 31
0.0
  0
LINE
  5
235
330
2
100
AcDbEntity
  8
1
100
AcDbLine
 10
2209.972271372242
 20
-1806.09468953672
 30
0.0
 11
2259.972271372241
 21
-1756.09468953672
 31
0.0
  0
LINE
  5
236
330
2
100
AcDbEntity
  8
1
100
AcDbLine
 10
2209.972271372242
 20
-1783.644049234047
 30
0.0
 11
2259.972271372242
 21
-1733.644049234047
 31
0.0
  0
LINE
  5
237
330
2
100
AcDbEntity
  8
1
100
AcDbLine
 10
2209.972271372242
 20
-1716.292128326029
 30
0.0
 11
2259.972271372242
 21
-1666.292128326029
 31
0.0
  0
LINE
  5
238
330
2
100
AcDbEntity
  8
1
100
AcDbLine
 10
2209.972271372242
 20
-1693.841488023356
 30
0.0
 11
2259.972271372242
 21
-1643.841488023355
 31
0.0
  0
LINE
  5
239
330
2
100
AcDbEntity
  8
1
100
AcDbLine
 10
2209.972271372242
 20
-1671.390847720683
 30
0.0
 11
2259.972271372242
 21
-1621.390847720682
 31
0.0
  0
LINE
  5
23A
330
2
100
AcDbEntity
  8
1
100
AcDbLine
 10
2209.972271372242
 20
-1648.94020741801
 30
0.0
 11
2259.972271372242
 21
-1598.94020741801
 31
0.0
  0
LINE
  5
23B
330
2
100
AcDbEntity
  8
1
100
AcDbLine
 10
2209.972271372242
 20
-1626.489567115337
 30
0.0
 11
2259.972271372242
 21
-1576.489567115336
 31
0.0
  0
LINE
  5
23C
330
2
100
AcDbEntity
  8
1
100
AcDbLine
 10
2209.972271372242
 20
-1604.038926812664
 30
0.0
 11
2259.972271372242
 21
-1554.038926812663
 31
0.0
  0
LINE
  5
23D
330
2
100
AcDbEntity
  8
1
100
AcDbLine
 10
2209.972271372242
 20
-1581.588286509992
 30
0.0
 11
2259.972271372242
 21
-1531.588286509991
 31
0.0
  0
LINE
  5
23E
330
2
100
AcDbEntity
  8
1
100
AcDbLine
 10
2209.972271372242
 20
-1559.137646207319
 30
0.0
 11
2259.972271372242
 21
-1509.137646207318
 31
0.0
  0
LINE
  5
23F
330
2
100
AcDbEntity
  8
1
100
AcDbLine
 10
2209.972271372242
 20
-1536.687005904646
 30
0.0
 11
2259.972271372242
 21
-1486.687005904645
 31
0.0
  0
LINE
  5
240
330
2
100
AcDbEntity
  8
1
100
AcDbLine
 10
2209.972271372242
 20
-1514.236365601973
 30
0.0
 11
2259.972271372242
 21
-1464.236365601973
 31
0.0
  0
LINE
  5
241
330
2
100
AcDbEntity
  8
1
100
AcDbLine
 10
2209.972271372242
 20
-1491.7857252993
 30
0.0
 11
2259.972271372242
 21
-1441.7857252993
 31
0.0
  0
LINE
  5
242
330
2
100
AcDbEntity
  8
1
100
AcDbLine
 10
2209.972271372242
 20
-1469.335084996627
 30
0.0
 11
2259.972271372242
 21
-1419.335084996626
 31
0.0
  0
LINE
  5
243
330
2
100
AcDbEntity
  8
1
100
AcDbLine
 10
2209.972271372242
 20
-1401.983164088608
 30
0.0
 11
2259.972271372242
 21
-1351.983164088607
 31
0.0
  0
LINE
  5
244
330
2
100
AcDbEntity
  8
1
100
AcDbLine
 10
2209.972271372242
 20
-1379.532523785936
 30
0.0
 11
2259.972271372242
 21
-1329.532523785935
 31
0.0
  0
LINE
  5
245
330
2
100
AcDbEntity
  8
1
100
AcDbLine
 10
2209.972271372242
 20
-1357.081883483263
 30
0.0
 11
2259.972271372242
 21
-1307.081883483262
 31
0.0
  0
CIRCLE
  5
246
330
2
100
AcDbEntity
  8
1
100
AcDbCircle
 10
2182.55303349934
 20
-1273.685097290372
 30
0.0
 40
28.5
  0
CIRCLE
  5
247
330
2
100
AcDbEntity
  8
3
100
AcDbCircle
 10
2182.55303349934
 20
-1273.685097290372
 30
0.0
 40
11.0
  0
LINE
  5
248
330
2
100
AcDbEntity
  8
1
100
AcDbLine
 10
2209.972271372242
 20
-1334.63124318059
 30
0.0
 11
2250.214354155946
 21
-1294.389160396885
 31
0.0
  0
LINE
  5
249
330
2
100
AcDbEntity
  8
1
100
AcDbLine
 10
2209.972271372242
 20
-1312.180602877917
 30
0.0
 11
2227.763713853273
 21
-1294.389160396886
 31
0.0
  0
DIMENSION
  5
24A
330
2
100
AcDbEntity
  8
0
100
AcDbDimension
  2
*D40
 10
2299.992139461985
 20
232.0682067024845
 30
0.0
 11
2274.9921394619
 21
302.0682067024845
 31
0.0
  1
40.0
  3
STANDARD
100
AcDbAlignedDimension
 13
2249.992139461816
 23
232.0682067024845
 33
0.0
 14
2299.992139461985
 24
454.9069245728023
 34
0.0
100
AcDbRotatedDimension
1001
ACAD
1000
DSTYLE
1002
{
1070
   140
1040
5.0
1002
}
  0
CIRCLE
  5
258
330
2
100
AcDbEntity
  8
3
100
AcDbCircle
 10
1497.566623179287
 20
-431.9034009209754
 30
0.0
 40
11.0
  0
CIRCLE
  5
259
330
2
100
AcDbEntity
  8
3
100
AcDbCircle
 10
1857.636082671233
 20
-586.0156968066275
 30
0.0
 40
11.0
  0
TEXT
  5
25A
330
2
100
AcDbEntity
  8
3
100
AcDbText
 10
1766.790117568234
 20
925.1606276916326
 30
0.0
 40
60.0
  1
１１
100
AcDbText
  0
TEXT
  5
25B
330
2
100
AcDbEntity
  8
3
100
AcDbText
 10
1576.843446011014
 20
764.51391542492
 30
0.0
 40
60.0
  1
１０
100
AcDbText
  0
TEXT
  5
25C
330
2
100
AcDbEntity
  8
3
100
AcDbText
 10
1860.88680355542
 20
1121.804420802811
 30
0.0
 40
60.0
  1
１２
100
AcDbText
  0
CIRCLE
  5
25D
330
2
100
AcDbEntity
  8
3
100
AcDbCircle
 10
1966.117011395112
 20
1384.182637500382
 30
0.0
 40
76.5011064388018
  0
TEXT
  5
25E
330
2
100
AcDbEntity
  8
3
100
AcDbText
 10
1901.768101765584
 20
1357.4616638597
 30
0.0
 40
60.0
  1
１３
100
AcDbText
  0
LINE
  5
25F
330
2
100
AcDbEntity
  8
1
100
AcDbLine
 10
2299.99213946181
 20
1304.072168515904
 30
0.0
 11
2299.99213946181
 21
454.9069245728023
 31
0.0
  0
LINE
  5
260
330
2
100
AcDbEntity
  8
1
100
AcDbLine
 10
2246.135225615773
 20
1261.050893279098
 30
0.0
 11
2349.992139461817
 21
1261.050893279098
 31
0.0
  0
LWPOLYLINE
  5
261
330
2
100
AcDbEntity
  8
1
100
AcDbPolyline
 90
        4
 70
     1
 43
0.0
 10
2192.492139461815
 20
1309.050893279094
 10
2262.492139461815
 20
1309.050893279094
 10
2262.492139461815
 20
1379.050893279094
 10
2192.492139461815
 20
1379.050893279094
  0
LINE
  5
262
330
2
100
AcDbEntity
  8
1
100
AcDbLine
 10
2262.492139461815
 20
1379.050893279094
 30
0.0
 11
2192.492139461815
 21
1309.050893279094
 31
0.0
  0
LINE
  5
263
330
2
100
AcDbEntity
  8
1
100
AcDbLine
 10
2192.492139461815
 20
1379.050893279094
 30
0.0
 11
2262.492139461815
 21
1309.050893279094
 31
0.0
  0
CIRCLE
  5
264
330
2
100
AcDbEntity
  8
1
100
AcDbCircle
 10
2227.492139461815
 20
1344.050893279094
 30
0.0
 40
30.0
  0
DIMENSION
  5
265
330
2
100
AcDbEntity
  8
0
100
AcDbDimension
  2
*D43
 10
3235.38944303427
 20
355.214063818058
 30
0.0
 11
3215.389443034272
 21
425.2140638180581
 31
0.0
  3
STANDARD
100
AcDbAlignedDimension
 13
3195.389443034275
 23
539.6639511472349
 33
0.0
 14
3235.38944303427
 24
355.214063818058
 34
0.0
100
AcDbRotatedDimension
1001
ACAD
1000
DSTYLE
1002
{
1070
   140
1040
5.0
1002
}
  0
LINE
  5
273
330
2
100
AcDbEntity
  8
1
100
AcDbLine
 10
3195.389443034276
 20
1261.241512724669
 30
0.0
 11
3195.389443034275
 21
539.6639511472349
 31
0.0
  0
LINE
  5
274
330
2
100
AcDbEntity
  8
1
100
AcDbLine
 10
3239.679757817464
 20
1261.241512724669
 30
0.0
 11
3045.389443034279
 21
1261.241512724669
 31
0.0
  0
LWPOLYLINE
  5
275
330
2
100
AcDbEntity
  8
1
100
AcDbPolyline
 90
        4
 70
     1
 43
0.0
 10
3292.889443034271
 20
1309.241512724665
 10
3222.889443034272
 20
1309.241512724665
 10
3222.889443034272
 20
1379.241512724665
 10
3292.889443034271
 20
1379.241512724665
  0
LINE
  5
276
330
2
100
AcDbEntity
  8
1
100
AcDbLine
 10
3222.889443034272
 20
1379.241512724665
 30
0.0
 11
3292.889443034271
 21
1309.241512724665
 31
0.0
  0
LINE
  5
277
330
2
100
AcDbEntity
  8
1
100
AcDbLine
 10
3292.889443034271
 20
1379.241512724665
 30
0.0
 11
3222.889443034272
 21
1309.241512724665
 31
0.0
  0
CIRCLE
  5
278
330
2
100
AcDbEntity
  8
1
100
AcDbCircle
 10
3257.889443034271
 20
1344.241512724666
 30
0.0
 40
30.0
  0
TEXT
  5
279
330
2
100
AcDbEntity
  8
3
100
AcDbText
 10
3525.306093657152
 20
906.0718131068124
 30
0.0
 40
60.0
  1
１１
100
AcDbText
  0
TEXT
  5
27A
330
2
100
AcDbEntity
  8
3
100
AcDbText
 10
3703.252738469359
 20
742.2118416625116
 30
0.0
 40
60.0
  1
１０
100
AcDbText
  0
TEXT
  5
27B
330
2
100
AcDbEntity
  8
3
100
AcDbText
 10
3399.13825157183
 20
1118.781801243364
 30
0.0
 40
60.0
  1
１２
100
AcDbText
  0
CIRCLE
  5
27C
330
2
100
AcDbEntity
  8
3
100
AcDbCircle
 10
3447.277078897634
 20
1395.018253050986
 30
0.0
 40
75.97777102044346
  0
TEXT
  5
27D
330
2
100
AcDbEntity
  8
3
100
AcDbText
 10
3383.970808467685
 20
1370.505259498132
 30
0.0
 40
60.0
  1
１３
100
AcDbText
  0
HATCH
  5
27E
330
2
100
AcDbEntity
  8
1
100
AcDbHatch
 10
0.0
 20
0.0
 30
0.0
210
0.0
220
0.0
230
1.0
  2
ANSI31
 70
     0
 71
     0
 91
        2
 92
        7
 72
     0
 73
     1
 93
        4
 10
2371.581770530175
 20
3933.36867450098
 10
2321.581770530174
 20
3933.36867450098
 10
2321.581770530174
 20
3084.203430557878
 10
2371.581770530174
 20
3084.203430557877
 97
        0
 92
        7
 72
     0
 73
     1
 93
        4
 10
1336.603045766802
 20
4968.347399264345
 10
483.1740033940804
 20
4968.347399264345
 10
483.1740033940805
 20
4918.347399264348
 10
1336.603045766802
 20
4918.347399264348
 97
        0
 75
     0
 76
     1
 52
0.0
 41
5.0
 77
     0
 78
     1
 53
45.0
 43
0.0
 44
0.0
 45
-11.22532015133643
 46
11.22532015133644
 79
     0
 47
3.277992928535928
 98
        2
 10
2339.114627654744
 20
3523.454478797154
 10
1099.634850237525
 20
4932.991464011745
  0
DIMENSION
  5
27F
330
2
100
AcDbEntity
  8
0
100
AcDbDimension
  2
*D31
 10
1376.418482893368
 20
5004.144589783267
 30
0.0
 11
1356.510764330087
 21
5054.144589783267
 31
0.0
  1
40.0
  3
STANDARD
100
AcDbAlignedDimension
 13
1336.603045766805
 23
4968.347399264349
 33
0.0
 14
1376.418482893368
 24
4918.347399264348
 34
0.0
100
AcDbRotatedDimension
1001
ACAD
1000
DSTYLE
1002
{
1070
    41
1040
3.0
1070
   140
1040
3.0
1002
}
  0
DIMENSION
  5
28E
330
2
100
AcDbEntity
  8
0
100
AcDbDimension
  2
*D30
 10
1641.733872976445
 20
3933.368674500982
 30
0.0
 11
1591.733872976444
 21
3953.358036882664
 31
0.0
  3
STANDARD
100
AcDbAlignedDimension
 13
1376.58177053017
 23
3973.347399264344
 33
0.0
 14
1747.433090557879
 24
3933.368674500982
 34
0.0
 50
90.0
100
AcDbRotatedDimension
1001
ACAD
1000
DSTYLE
1002
{
1070
    41
1040
3.0
1070
   140
1040
3.0
1002
}
  0
LINE
  5
29D
330
2
100
AcDbEntity
  8
1
100
AcDbLine
 10
1271.992139461809
 20
2339.050893279102
 30
0.0
 11
2349.992139461816
 21
2339.050893279102
 31
0.0
  0
LINE
  5
29E
330
2
100
AcDbEntity
  8
6
100
AcDbLine
 10
1271.992139461809
 20
2289.050893279101
 30
0.0
 11
2299.992139461817
 21
2289.050893279101
 31
0.0
  0
DIMENSION
  5
29F
330
2
100
AcDbEntity
  8
0
100
AcDbDimension
  2
*D11
 10
1271.992139461809
 20
2538.72510525636
 30
0.0
 11
1810.992139461812
 21
2588.72510525636
 31
0.0
  3
STANDARD
100
AcDbAlignedDimension
 13
2349.992139461816
 23
2339.050893279102
 33
0.0
 14
1271.992139461809
 24
2339.050893279102
 34
0.0
100
AcDbRotatedDimension
1001
ACAD
1000
DSTYLE
1002
{
1070
   140
1040
3.0
1070
    41
1040
3.0
1002
}
  0
LINE
  5
2AC
330
2
100
AcDbEntity
  8
6
100
AcDbLine
 10
1518.611795211818
 20
4811.397202133449
 30
0.0
 11
1460.970192362336
 21
4336.675892863012
 31
0.0
  0
DIMENSION
  5
2AD
330
2
100
AcDbEntity
  8
0
100
AcDbDimension
  2
*D4
 10
2371.58177053017
 20
5111.051715174697
 30
0.0
 11
1854.092408148486
 21
5161.051715174697
 31
0.0
  3
STANDARD
100
AcDbAlignedDimension
 13
1336.603045766802
 23
4968.347399264345
 33
0.0
 14
2371.58177053017
 24
4968.347399264349
 34
0.0
100
AcDbRotatedDimension
1001
ACAD
1000
DSTYLE
1002
{
1070
   140
1040
3.0
1070
    41
1040
3.0
1002
}
  0
LINE
  5
2BA
330
2
100
AcDbEntity
  8
1
100
AcDbLine
 10
1336.603045766802
 20
4968.347399264349
 30
0.0
 11
2371.58177053017
 21
4968.347399264349
 31
0.0
  0
LINE
  5
2BB
330
2
100
AcDbEntity
  8
6
100
AcDbLine
 10
1336.603045766805
 20
4918.347399264348
 30
0.0
 11
2321.58177053017
 21
4918.347399264348
 31
0.0
  0
ARC
  5
2BC
330
2
100
AcDbEntity
  8
1
100
AcDbCircle
 10
415.9105281172742
 20
2859.625947330881
 30
0.0
 40
1383.304102692104
100
AcDbArc
 50
34.61538461531789
 51
49.21967884033539
  0
ARC
  5
2BD
330
2
100
AcDbEntity
  8
6
100
AcDbCircle
 10
2366.386816760689
 20
2885.436245285058
 30
0.0
 40
1383.304102692104
100
AcDbArc
 50
117.6923076923691
 51
132.2966019172142
  0
ARC
  5
2BE
330
2
100
AcDbEntity
  8
5
 62
   180
100
AcDbCircle
 10
1747.433090557879
 20
2550.064571808878
 30
0.0
 40
1383.304102692104
100
AcDbArc
 50
90.0
 51
104.6042942249288
  0
ARC
  5
2BF
330
2
100
AcDbEntity
  8
1
100
AcDbCircle
 10
1043.521796179626
 20
2540.749841685265
 30
0.0
 40
1383.304102692104
100
AcDbArc
 50
62.30769230763083
 51
76.91198653263959
  0
DIMENSION
  5
2C0
330
2
100
AcDbEntity
  8
0
100
AcDbDimension
  2
*D3
 10
481.5817705301778
 20
2871.818533471829
 30
0.0
 11
1376.581770530178
 21
2941.818533471829
 31
0.0
  3
STANDARD
100
AcDbAlignedDimension
 13
2271.581770530178
 23
3840.486667980767
 33
0.0
 14
481.5817705301779
 24
3840.486667980767
 34
0.0
100
AcDbRotatedDimension
1001
ACAD
1000
DSTYLE
1002
{
1070
   140
1040
5.0
1070
    41
1040
3.0
1002
}
  0
ARC
  5
2CD
330
2
100
AcDbEntity
  8
6
100
AcDbCircle
 10
2758.588135315989
 20
3470.03525338722
 30
0.0
 40
1383.304102692104
100
AcDbArc
 50
145.3846153846821
 51
159.9889096095203
  0
ARC
  5
2CE
330
2
100
AcDbEntity
  8
6
100
AcDbCircle
 10
1376.58177053017
 20
3973.347399264344
 30
0.0
 40
850.0000000000058
100
AcDbArc
 50
357.3041675514283
 51
92.69583244857134
  0
ARC
  5
2CF
330
2
100
AcDbEntity
  8
6
100
AcDbCircle
 10
1376.58177053017
 20
3973.347399264344
 30
0.0
 40
895.0000000000059
100
AcDbArc
 50
357.4398048787995
 51
92.56019512120012
  0
ARC
  5
2D0
330
2
100
AcDbEntity
  8
1
100
AcDbCircle
 10
1376.58177053017
 20
3973.347399264344
 30
0.0
 40
850.0000000000058
100
AcDbArc
 50
92.69583244857134
 51
356.4940931500489
  0
ARC
  5
2D1
330
2
100
AcDbEntity
  8
1
100
AcDbCircle
 10
1376.58177053017
 20
3973.347399264344
 30
0.0
 40
895.0000000000059
100
AcDbArc
 50
92.56019512120012
 51
356.6705717545078
  0
DIMENSION
  5
2D2
330
2
100
AcDbEntity
  8
0
100
AcDbDimension
  2
*D32
 10
1376.581770530166
 20
3973.347399264344
 30
0.0
 11
1092.394203722295
 21
4310.79771300562
 31
0.0
 70
   132
  3
STANDARD
100
AcDbRadialDimension
 15
800.057866809395
 25
4657.924048324598
 35
0.0
 40
0.0
1001
ACAD
1000
DSTYLE
1002
{
1070
    41
1040
3.0
1070
   140
1040
3.0
1002
}
  0
CIRCLE
  5
2DB
330
2
100
AcDbEntity
  8
1
100
AcDbCircle
 10
1376.58177053017
 20
3973.347399264344
 30
0.0
 40
73.0
  0
ARC
  5
2DC
330
2
100
AcDbEntity
  8
1
100
AcDbCircle
 10
675.8928405460428
 20
5266.521684460898
 30
0.0
 40
1383.304102692104
100
AcDbArc
 50
283.8461538463083
 51
296.8669532037168
  0
CIRCLE
  5
2DD
330
2
100
AcDbEntity
  8
6
100
AcDbCircle
 10
1376.58177053017
 20
3973.347399264344
 30
0.0
 40
87.60366684856466
  0
TEXT
  5
2DE
330
2
100
AcDbEntity
  8
3
100
AcDbText
 10
699.8982076798129
 20
3976.899742172462
 30
0.0
 40
60.0
  1
７
100
AcDbText
  0
LINE
  5
2DF
330
2
100
AcDbEntity
  8
4
100
AcDbLine
 10
1376.418482893368
 20
4008.347399264348
 30
0.0
 11
1376.418482893368
 21
4918.347399264348
 31
0.0
  0
LINE
  5
2E0
330
2
100
AcDbEntity
  8
1
100
AcDbLine
 10
1406.418482893368
 20
4008.347399264348
 30
0.0
 11
1406.418482893368
 21
4918.347399264348
 31
0.0
  0
LINE
  5
2E1
330
2
100
AcDbEntity
  8
1
100
AcDbLine
 10
1346.418482893368
 20
4008.347399264348
 30
0.0
 11
1346.418482893368
 21
4918.347399264348
 31
0.0
  0
DIMENSION
  5
2E2
330
2
100
AcDbEntity
  8
0
100
AcDbDimension
  2
*D2
 10
354.7517904207852
 20
4868.347399264341
 30
0.0
 11
284.7517904207844
 21
3973.347399264341
 31
0.0
  3
STANDARD
100
AcDbAlignedDimension
 13
1213.146119945176
 23
3078.347399264341
 33
0.0
 14
1209.670581625832
 24
4868.347399264341
 34
0.0
 50
270.0
100
AcDbRotatedDimension
1001
ACAD
1000
DSTYLE
1002
{
1070
   140
1040
5.0
1070
    41
1040
3.0
1002
}
  0
ARC
  5
2EF
330
2
100
AcDbEntity
  8
6
100
AcDbCircle
 10
2834.188450681034
 20
4169.937008540939
 30
0.0
 40
1383.304102692104
100
AcDbArc
 50
173.0769230768312
 51
187.6812173018676
  0
ARC
  5
2F0
330
2
100
AcDbEntity
  8
1
100
AcDbCircle
 10
-46.70105692529978
 20
4344.198719292057
 30
0.0
 40
1383.304102692104
100
AcDbArc
 50
345.3957057750695
 51
0.0
  0
DIMENSION
  5
2F1
330
2
100
AcDbEntity
  8
0
100
AcDbDimension
  2
*D41
 10
303.0572547636529
 20
2239.0508932791
 30
0.0
 11
233.0572547636525
 21
2264.050893279186
 31
0.0
  1
40.0
  3
STANDARD
100
AcDbAlignedDimension
 13
461.5843723258913
 23
2289.050893279272
 33
0.0
 14
303.0572547636529
 24
2239.0508932791
 34
0.0
 50
90.0
100
AcDbRotatedDimension
1001
ACAD
1000
DSTYLE
1002
{
1070
   140
1040
5.0
1002
}
  0
LINE
  5
2FF
330
2
100
AcDbEntity
  8
1
100
AcDbLine
 10
1315.013414698442
 20
2289.050893279272
 30
0.0
 11
461.5843723257166
 21
2289.050893279272
 31
0.0
  0
TEXT
  5
300
330
2
100
AcDbEntity
  8
3
100
AcDbText
 10
815.974677415833
 20
1766.159662896947
 30
0.0
 40
60.0
  1
３
100
AcDbText
  0
LWPOLYLINE
  5
301
330
2
100
AcDbEntity
  8
6
100
AcDbPolyline
 90
        4
 70
     1
 43
0.0
 10
1402.992139461809
 20
2179.088823486745
 10
1472.992139461809
 20
2179.088823486745
 10
1472.992139461809
 20
2249.088823486743
 10
1402.992139461809
 20
2249.088823486743
  0
LINE
  5
302
330
2
100
AcDbEntity
  8
6
100
AcDbLine
 10
1472.992139461809
 20
2249.088823486743
 30
0.0
 11
1402.992139461809
 21
2179.088823486745
 31
0.0
  0
LINE
  5
303
330
2
100
AcDbEntity
  8
6
100
AcDbLine
 10
1402.992139461809
 20
2249.088823486743
 30
0.0
 11
1472.992139461809
 21
2179.088823486745
 31
0.0
  0
CIRCLE
  5
304
330
2
100
AcDbEntity
  8
6
100
AcDbCircle
 10
1437.992139461809
 20
2214.088823486745
 30
0.0
 40
30.0
  0
LINE
  5
305
330
2
100
AcDbEntity
  8
6
100
AcDbLine
 10
1420.492139461809
 20
2231.588823486745
 30
0.0
 11
1455.492139461809
 21
2196.588823486745
 31
0.0
  0
LINE
  5
306
330
2
100
AcDbEntity
  8
6
100
AcDbLine
 10
1455.492139461809
 20
2231.588823486745
 30
0.0
 11
1420.492139461809
 21
2196.588823486745
 31
0.0
  0
LINE
  5
307
330
2
100
AcDbEntity
  8
1
100
AcDbLine
 10
1271.992139461809
 20
1761.320071125545
 30
0.0
 11
1107.947705835782
 21
2157.358367617311
 31
0.0
  0
TEXT
  5
308
330
2
100
AcDbEntity
  8
3
100
AcDbText
 10
1029.335779286269
 20
1926.806375163658
 30
0.0
 40
60.0
  1
２
100
AcDbText
  0
ARC
  5
309
330
2
100
AcDbEntity
  8
6
100
AcDbCircle
 10
1354.992139461809
 20
1344.050893279094
 30
0.0
 40
850.0000000000058
100
AcDbArc
 50
86.76275151200488
 51
95.60369368369682
  0
TEXT
  5
30A
330
2
100
AcDbEntity
  8
3
100
AcDbText
 10
1205.294957036277
 20
1990.826855582869
 30
0.0
 40
60.0
  1
１
100
AcDbText
  0
DIMENSION
  5
30B
330
2
100
AcDbEntity
  8
0
100
AcDbDimension
  2
*D12
 10
1354.992139461725
 20
2414.167060864822
 30
0.0
 11
1313.492139461767
 21
2464.167060864822
 31
0.0
  3
STANDARD
100
AcDbAlignedDimension
 13
1271.992139461809
 23
2339.050893279102
 33
0.0
 14
1354.992139461725
 24
2339.050893279102
 34
0.0
100
AcDbRotatedDimension
1001
ACAD
1000
DSTYLE
1002
{
1070
   140
1040
3.0
1070
    41
1040
3.0
1002
}
  0
ARC
  5
31A
330
2
100
AcDbEntity
  8
6
100
AcDbCircle
 10
1354.992139461809
 20
1344.050893279094
 30
0.0
 40
895.0000000000059
100
AcDbArc
 50
86.9256787356668
 51
95.32110914729518
  0
LINE
  5
31B
330
2
100
AcDbEntity
  8
1
100
AcDbLine
 10
542.6270518093697
 20
3808.971223608274
 30
0.0
 11
1006.939180793506
 21
3923.413884940113
 31
0.0
  0
LINE
  5
31C
330
2
100
AcDbEntity
  8
1
100
AcDbLine
 10
714.5409574762234
 20
3440.241441831047
 30
0.0
 11
1072.484773277836
 21
3757.351991299016
 31
0.0
  0
TEXT
  5
31D
330
2
100
AcDbEntity
  8
3
100
AcDbText
 10
755.8611898477975
 20
3663.502451982461
 30
0.0
 40
60.0
  1
８
100
AcDbText
  0
LINE
  5
31E
330
2
100
AcDbEntity
  8
1
100
AcDbLine
 10
1038.120434957036
 20
3193.639810278539
 30
0.0
 11
1207.695323066578
 21
3640.772042595926
 31
0.0
  0
LINE
  5
31F
330
2
100
AcDbEntity
  8
1
100
AcDbLine
 10
1439.237325516387
 20
3125.659790867608
 30
0.0
 11
1381.595722666905
 21
3600.381100138045
 31
0.0
  0
TEXT
  5
320
330
2
100
AcDbEntity
  8
3
100
AcDbText
 10
1194.107199968446
 20
3273.384186247726
 30
0.0
 40
60.0
  1
１０
100
AcDbText
  0
ARC
  5
321
330
2
100
AcDbEntity
  8
1
100
AcDbCircle
 10
155.1844795452488
 20
4792.769980153236
 30
0.0
 40
1383.304102692104
100
AcDbArc
 50
311.5384615385849
 51
325.5274721283989
  0
TEXT
  5
322
330
2
100
AcDbEntity
  8
3
100
AcDbText
 10
946.9568973796812
 20
3415.528685629782
 30
0.0
 40
60.0
  1
９
100
AcDbText
  0
ARC
  5
323
330
2
100
AcDbEntity
  8
1
100
AcDbCircle
 10
-85.71648152391208
 20
4131.298437676537
 30
0.0
 40
1383.304102692104
100
AcDbArc
 50
339.2307692308234
 51
353.8350634556489
  0
ARC
  5
324
330
2
100
AcDbEntity
  8
1
100
AcDbCircle
 10
8.377464348206558
 20
3433.642215815969
 30
0.0
 40
1383.304102692104
100
AcDbArc
 50
6.923076923168747
 51
21.52737114790585
  0
ARC
  5
325
330
2
100
AcDbEntity
  8
1
100
AcDbCircle
 10
1376.58177053017
 20
3973.347399264344
 30
0.0
 40
87.50000000000179
100
AcDbArc
 50
165.3957057750695
 51
284.6042942249288
  0
LINE
  5
326
330
2
100
AcDbEntity
  8
1
100
AcDbLine
 10
1411.58177053017
 20
3938.347399264348
 30
0.0
 11
1341.58177053017
 21
4008.347399264348
 31
0.0
  0
LWPOLYLINE
  5
327
330
2
100
AcDbEntity
  8
1
100
AcDbPolyline
 90
        4
 70
     1
 43
0.0
 10
1341.58177053017
 20
4008.347399264348
 10
1411.58177053017
 20
4008.347399264348
 10
1411.58177053017
 20
3938.347399264348
 10
1341.58177053017
 20
3938.347399264348
  0
LINE
  5
328
330
2
100
AcDbEntity
  8
1
100
AcDbLine
 10
1341.58177053017
 20
3938.347399264348
 30
0.0
 11
1411.58177053017
 21
4008.347399264348
 31
0.0
  0
CIRCLE
  5
329
330
2
100
AcDbEntity
  8
1
100
AcDbCircle
 10
1376.581770530087
 20
3973.347399264257
 30
0.0
 40
30.0
  0
DIMENSION
  5
32A
330
2
100
AcDbEntity
  8
0
100
AcDbDimension
  2
*D39
 10
354.7517904207852
 20
4868.347399264341
 30
0.0
 11
284.7517904207844
 21
4893.347399264345
 31
0.0
  1
40.0
  3
STANDARD
100
AcDbAlignedDimension
 13
483.1740033940804
 23
4918.347399264348
 33
0.0
 14
354.7517904207852
 24
4868.347399264341
 34
0.0
 50
90.0
100
AcDbRotatedDimension
1001
ACAD
1000
DSTYLE
1002
{
1070
   140
1040
5.0
1002
}
  0
LINE
  5
338
330
2
100
AcDbEntity
  8
1
100
AcDbLine
 10
1336.603045766805
 20
4918.347399264348
 30
0.0
 11
483.1740033940804
 21
4918.347399264348
 31
0.0
  0
LINE
  5
339
330
2
100
AcDbEntity
  8
1
100
AcDbLine
 10
767.562553952539
 20
4566.302367064753
 30
0.0
 11
1125.506369754155
 21
4249.19181759678
 31
0.0
  0
LINE
  5
33A
330
2
100
AcDbEntity
  8
1
100
AcDbLine
 10
561.7621219575958
 20
4215.35760628065
 30
0.0
 11
1026.074250941735
 21
4100.914944948811
 31
0.0
  0
TEXT
  5
33B
330
2
100
AcDbEntity
  8
3
100
AcDbText
 10
815.2813930079828
 20
4278.149036566739
 30
0.0
 40
60.0
  1
６
100
AcDbText
  0
TEXT
  5
33C
330
2
100
AcDbEntity
  8
3
100
AcDbText
 10
1255.825294780002
 20
4592.799357856309
 30
0.0
 40
60.0
  1
４
100
AcDbText
  0
LINE
  5
33D
330
2
100
AcDbEntity
  8
1
100
AcDbLine
 10
1112.881948988226
 20
4781.408290607789
 30
0.0
 11
1282.456837097772
 21
4334.276058290398
 31
0.0
  0
LINE
  5
33E
330
2
100
AcDbEntity
  8
1
100
AcDbLine
 10
1336.603045766805
 20
4968.347399264349
 30
0.0
 11
1336.603045766805
 21
4344.198719292057
 31
0.0
  0
ARC
  5
33F
330
2
100
AcDbEntity
  8
1
100
AcDbCircle
 10
1357.120591189199
 20
5444.022744469599
 30
0.0
 40
1383.304102692104
100
AcDbArc
 50
256.1538461536916
 51
267.9414538765992
  0
ARC
  5
340
330
2
100
AcDbEntity
  8
1
100
AcDbCircle
 10
2042.806663486743
 20
5284.609806451001
 30
0.0
 40
1383.304102692104
100
AcDbArc
 50
228.461538461415
 51
238.3137731384285
  0
TEXT
  5
341
330
2
100
AcDbEntity
  8
3
100
AcDbText
 10
1000.711993645305
 20
4493.854160206099
 30
0.0
 40
60.0
  1
５
100
AcDbText
  0
ARC
  5
342
330
2
100
AcDbEntity
  8
1
100
AcDbCircle
 10
2575.868641688263
 20
4824.802453371009
 30
0.0
 40
1383.304102692104
100
AcDbArc
 50
200.7692307691764
 51
205.8648348866961
  0
ARC
  5
343
330
2
100
AcDbEntity
  8
6
100
AcDbCircle
 10
2042.806663486743
 20
5284.609806451001
 30
0.0
 40
1383.304102692104
100
AcDbArc
 50
238.3137731384285
 51
243.0658326865061
  0
ARC
  5
344
330
2
100
AcDbEntity
  8
6
100
AcDbCircle
 10
1357.120591189199
 20
5444.022744469599
 30
0.0
 40
1383.304102692104
100
AcDbArc
 50
267.9414538765992
 51
270.7581403788002
  0
ARC
  5
345
330
2
100
AcDbEntity
  8
6
100
AcDbCircle
 10
675.8928405460428
 20
5266.521684460898
 30
0.0
 40
1383.304102692104
100
AcDbArc
 50
296.8669532037168
 51
298.4504480710256
  0
ARC
  5
346
330
2
100
AcDbEntity
  8
6
100
AcDbCircle
 10
2575.868641688263
 20
4824.802453371009
 30
0.0
 40
1383.304102692104
100
AcDbArc
 50
205.8648348866961
 51
215.3735249940629
  0
DIMENSION
  5
347
330
2
100
AcDbEntity
  8
0
100
AcDbDimension
  2
*D33
 10
3728.421631316006
 20
3910.072966305277
 30
0.0
 11
3678.421631316006
 21
3930.06232868696
 31
0.0
  3
STANDARD
100
AcDbAlignedDimension
 13
3943.88392999826
 23
3950.051691068642
 33
0.0
 14
3573.03260997054
 24
3910.072966305277
 34
0.0
 50
90.0
100
AcDbRotatedDimension
1001
ACAD
1000
DSTYLE
1002
{
1070
    41
1040
3.0
1070
   140
1040
3.0
1002
}
  0
CIRCLE
  5
356
330
2
100
AcDbEntity
  8
3
100
AcDbCircle
 10
3359.141921085334
 20
4000.323835863299
 30
0.0
 40
76.4705004569279
  0
CIRCLE
  5
357
330
2
100
AcDbEntity
  8
3
100
AcDbCircle
 10
2034.778415395423
 20
4036.037373686587
 30
0.0
 40
73.85435858793022
  0
DIMENSION
  5
358
330
2
100
AcDbEntity
  8
0
100
AcDbDimension
  2
*D7
 10
3003.464114371078
 20
4795.051465911384
 30
0.0
 11
2953.464114371077
 21
4352.562216108332
 31
0.0
 70
     1
  3
STANDARD
100
AcDbAlignedDimension
 13
3098.883917693634
 23
3910.072966305278
 33
0.0
 14
3098.884198030535
 24
4795.051465911384
 34
0.0
1001
ACAD
1000
DSTYLE
1002
{
1070
    41
1040
3.0
1070
   140
1040
3.0
1002
}
  0
LINE
  5
365
330
2
100
AcDbEntity
  8
6
100
AcDbLine
 10
3148.88391769363
 20
3910.072966305278
 30
0.0
 11
3148.883917693634
 21
4745.051465911384
 31
0.0
  0
LINE
  5
366
330
2
100
AcDbEntity
  8
1
100
AcDbLine
 10
3098.883917693629
 20
3910.072966305279
 30
0.0
 11
3098.884198030535
 21
4795.051465911384
 31
0.0
  0
TEXT
  5
367
330
2
100
AcDbEntity
  8
3
100
AcDbText
 10
3296.228729376275
 20
3971.125817595474
 30
0.0
 40
60.0
  1
１４
100
AcDbText
  0
TEXT
  5
368
330
2
100
AcDbEntity
  8
3
100
AcDbText
 10
3487.393248871569
 20
3971.722668849491
 30
0.0
 40
60.0
  1
１
100
AcDbText
  0
ARC
  5
369
330
2
100
AcDbEntity
  8
6
100
AcDbCircle
 10
2486.277249847398
 20
4146.64130034524
 30
0.0
 40
1383.304102692104
100
AcDbArc
 50
352.3187826981323
 51
6.923076923064108
  0
ARC
  5
36A
330
2
100
AcDbEntity
  8
6
100
AcDbCircle
 10
2561.87756521244
 20
3446.739545191524
 30
0.0
 40
1383.304102692104
100
AcDbArc
 50
20.01109039042395
 51
34.61538461540647
  0
ARC
  5
36B
330
2
100
AcDbEntity
  8
6
100
AcDbCircle
 10
2954.078883767736
 20
2862.140537089358
 30
0.0
 40
1383.304102692104
100
AcDbArc
 50
47.70339808275767
 51
62.30769230769489
  0
LINE
  5
36C
330
2
100
AcDbEntity
  8
4
100
AcDbLine
 10
3943.88392999826
 20
3950.051691068642
 30
0.0
 11
3943.88392999826
 21
4745.05146591138
 31
0.0
  0
LINE
  5
36D
330
2
100
AcDbEntity
  8
1
100
AcDbLine
 10
3913.883929998259
 20
3985.0516784504
 30
0.0
 11
3913.883929998259
 21
4745.05146591138
 31
0.0
  0
TEXT
  5
36E
330
2
100
AcDbEntity
  8
3
100
AcDbText
 10
1833.225014053947
 20
4007.05170741791
 30
0.0
 40
60.0
  1
１
100
AcDbText
  0
DIMENSION
  5
36F
330
2
100
AcDbEntity
  8
0
100
AcDbDimension
  2
*D1
 10
2473.493846557794
 20
4968.347399264349
 30
0.0
 11
2423.493846557794
 21
4450.858036882665
 31
0.0
  3
STANDARD
100
AcDbAlignedDimension
 13
2371.58177053017
 23
3933.36867450098
 33
0.0
 14
2371.58177053017
 24
4968.347399264349
 34
0.0
 50
270.0
100
AcDbRotatedDimension
1001
ACAD
1000
DSTYLE
1002
{
1070
   140
1040
3.0
1070
    41
1040
3.0
1002
}
  0
LINE
  5
37C
330
2
100
AcDbEntity
  8
1
100
AcDbLine
 10
2371.581770530174
 20
3933.36867450098
 30
0.0
 11
2371.58177053017
 21
4968.347399264349
 31
0.0
  0
LINE
  5
37D
330
2
100
AcDbEntity
  8
6
100
AcDbLine
 10
2321.581770530174
 20
3933.36867450098
 30
0.0
 11
2321.58177053017
 21
4918.347399264348
 31
0.0
  0
LINE
  5
37E
330
2
100
AcDbEntity
  8
5
 62
   180
100
AcDbLine
 10
2371.581770530174
 20
3933.36867450098
 30
0.0
 11
1747.433090557879
 21
3933.36867450098
 31
0.0
  0
LINE
  5
37F
330
2
100
AcDbEntity
  8
1
100
AcDbLine
 10
2109.807407533208
 20
3543.37046355558
 30
0.0
 11
1686.375266683862
 21
3765.604794724793
 31
0.0
  0
LINE
  5
380
330
2
100
AcDbEntity
  8
1
100
AcDbLine
 10
1826.000583509689
 20
3251.874786797252
 30
0.0
 11
1554.347486257378
 21
3645.432242078838
 31
0.0
  0
TEXT
  5
381
330
2
100
AcDbEntity
  8
3
100
AcDbText
 10
1518.984678355391
 20
3292.297916303598
 30
0.0
 40
60.0
  1
１１
100
AcDbText
  0
TEXT
  5
382
330
2
100
AcDbEntity
  8
3
100
AcDbText
 10
1796.994531310687
 20
3455.042400043168
 30
0.0
 40
60.0
  1
１２
100
AcDbText
  0
TEXT
  5
383
330
2
100
AcDbEntity
  8
3
100
AcDbText
 10
1970.101271355124
 20
3758.674141203211
 30
0.0
 40
60.0
  1
１３
100
AcDbText
  0
LINE
  5
384
330
2
100
AcDbEntity
  8
1
100
AcDbLine
 10
2321.581770530174
 20
3933.36867450098
 30
0.0
 11
2321.581770530174
 21
3084.203430557878
 31
0.0
  0
DIMENSION
  5
385
330
2
100
AcDbEntity
  8
0
100
AcDbDimension
  2
*D38
 10
2321.581770530174
 20
2871.818533471829
 30
0.0
 11
2296.581770530175
 21
2941.818533471829
 31
0.0
  1
40.0
  3
STANDARD
100
AcDbAlignedDimension
 13
2271.581770530178
 23
2871.818533471829
 33
0.0
 14
2321.581770530174
 24
3084.203430557878
 34
0.0
100
AcDbRotatedDimension
1001
ACAD
1000
DSTYLE
1002
{
1070
   140
1040
5.0
1002
}
  0
CIRCLE
  5
393
330
2
100
AcDbEntity
  8
1
100
AcDbCircle
 10
2247.875440023512
 20
3968.368674500889
 30
0.0
 40
30.0
  0
LINE
  5
394
330
2
100
AcDbEntity
  8
1
100
AcDbLine
 10
2217.530746434928
 20
3921.36867450098
 30
0.0
 11
2277.530746434928
 21
3921.36867450098
 31
0.0
  0
LINE
  5
395
330
2
100
AcDbEntity
  8
1
100
AcDbLine
 10
2212.875440023596
 20
3933.36867450098
 30
0.0
 11
2282.875440023595
 21
4003.36867450098
 31
0.0
  0
LWPOLYLINE
  5
396
330
2
100
AcDbEntity
  8
1
100
AcDbPolyline
 90
        4
 70
     1
 43
0.0
 10
2212.875440023596
 20
4003.36867450098
 10
2282.875440023595
 20
4003.36867450098
 10
2282.875440023595
 20
3933.36867450098
 10
2212.875440023596
 20
3933.36867450098
  0
LINE
  5
397
330
2
100
AcDbEntity
  8
1
100
AcDbLine
 10
2282.875440023595
 20
3933.36867450098
 30
0.0
 11
2212.875440023596
 21
4003.36867450098
 31
0.0
  0
LINE
  5
398
330
2
100
AcDbEntity
  8
1
100
AcDbLine
 10
2217.530746434928
 20
3921.36867450098
 30
0.0
 11
2217.530746434928
 21
3933.346136102104
 31
0.0
  0
LINE
  5
399
330
2
100
AcDbEntity
  8
1
100
AcDbLine
 10
2277.530746434928
 20
3921.36867450098
 30
0.0
 11
2277.530746434928
 21
3933.346136102104
 31
0.0
  0
TEXT
  5
39A
330
2
100
AcDbEntity
  8
3
100
AcDbText
 10
3277.522796853109
 20
3721.518028822414
 30
0.0
 40
60.0
  1
１３
100
AcDbText
  0
LINE
  5
39B
330
2
100
AcDbEntity
  8
5
 62
   180
100
AcDbLine
 10
3098.883917693629
 20
3910.072966305278
 30
0.0
 11
3573.032609970545
 21
3910.072966305276
 31
0.0
  0
DIMENSION
  5
39C
330
2
100
AcDbEntity
  8
0
100
AcDbDimension
  2
*D37
 10
3198.883955234741
 20
2966.314103629445
 30
0.0
 11
3173.883936464186
 21
3036.314103629445
 31
0.0
  1
40.0
  3
STANDARD
100
AcDbAlignedDimension
 13
3148.88391769363
 23
3194.990464484395
 33
0.0
 14
3198.883955234741
 24
3737.52398679898
 34
0.0
100
AcDbRotatedDimension
1001
ACAD
1000
DSTYLE
1002
{
1070
   140
1040
5.0
1002
}
  0
LINE
  5
3AB
330
2
100
AcDbEntity
  8
1
100
AcDbLine
 10
3148.88391769363
 20
3910.072966305278
 30
0.0
 11
3148.88391769363
 21
3194.990464484395
 31
0.0
  0
LWPOLYLINE
  5
3AC
330
2
100
AcDbEntity
  8
1
100
AcDbPolyline
 90
        4
 70
     1
 43
0.0
 10
3256.383917693632
 20
3985.072966305278
 10
3186.383917693631
 20
3985.072966305278
 10
3186.383917693631
 20
3915.072966305277
 10
3256.383917693632
 20
3915.072966305277
  0
LINE
  5
3AD
330
2
100
AcDbEntity
  8
1
100
AcDbLine
 10
3186.383917693631
 20
3915.072966305277
 30
0.0
 11
3256.383917693632
 21
3985.072966305278
 31
0.0
  0
LINE
  5
3AE
330
2
100
AcDbEntity
  8
1
100
AcDbLine
 10
3256.383917693632
 20
3915.072966305277
 30
0.0
 11
3186.383917693631
 21
3985.072966305278
 31
0.0
  0
CIRCLE
  5
3AF
330
2
100
AcDbEntity
  8
1
100
AcDbCircle
 10
3221.362642456996
 20
3950.051691068641
 30
0.0
 40
30.0
  0
LINE
  5
3B0
330
2
100
AcDbEntity
  8
1
100
AcDbLine
 10
3579.789508881237
 20
3352.192800935307
 30
0.0
 11
3766.118214271056
 21
3622.136533883134
 31
0.0
  0
LINE
  5
3B1
330
2
100
AcDbEntity
  8
1
100
AcDbLine
 10
3899.333210770806
 20
3251.470820004798
 30
0.0
 11
3938.869977861532
 21
3577.085391942338
 31
0.0
  0
TEXT
  5
3B2
330
2
100
AcDbEntity
  8
3
100
AcDbText
 10
3717.306593823023
 20
3338.092797080266
 30
0.0
 40
60.0
  1
１１
100
AcDbText
  0
ARC
  5
3B3
330
2
100
AcDbEntity
  8
5
 62
   180
100
AcDbCircle
 10
3573.03260997054
 20
2526.768863613173
 30
0.0
 40
1383.304102692104
100
AcDbArc
 50
75.3957057750695
 51
90.0
  0
LINE
  5
3B4
330
2
100
AcDbEntity
  8
1
100
AcDbLine
 10
3343.655451056146
 20
3589.877048614681
 30
0.0
 11
3634.090433844571
 21
3742.309086529091
 31
0.0
  0
TEXT
  5
3B5
330
2
100
AcDbEntity
  8
3
100
AcDbText
 10
3466.615661440703
 20
3496.325673605626
 30
0.0
 40
60.0
  1
１２
100
AcDbText
  0
LINE
  5
3B6
330
2
100
AcDbEntity
  8
6
100
AcDbLine
 10
2146.965487105801
 20
4332.525529493802
 30
0.0
 11
1723.533346256452
 21
4110.291198324587
 31
0.0
  0
LINE
  5
3B7
330
2
100
AcDbEntity
  8
6
100
AcDbLine
 10
1891.804274428196
 20
4649.399003416766
 30
0.0
 11
1620.151177175885
 21
4255.84154813518
 31
0.0
  0
TEXT
  5
3B8
330
2
100
AcDbEntity
  8
3
100
AcDbText
 10
1755.845749731208
 20
4237.907348931554
 30
0.0
 40
60.0
  1
２
100
AcDbText
  0
TEXT
  5
3B9
330
2
100
AcDbEntity
  8
3
100
AcDbText
 10
1553.235832405494
 20
4386.038715895354
 30
0.0
 40
60.0
  1
３
100
AcDbText
  0
TEXT
  5
3BA
330
2
100
AcDbEntity
  8
3
100
AcDbText
 10
1972.853549832707
 20
4008.395386009577
 30
0.0
 40
60.0
  1
１４
100
AcDbText
  0
LINE
  5
3BB
330
2
100
AcDbEntity
  8
6
100
AcDbLine
 10
3306.497371483556
 20
4239.427528043296
 30
0.0
 11
3596.932354271979
 21
4086.995490128883
 31
0.0
  0
LINE
  5
3BC
330
2
100
AcDbEntity
  8
6
100
AcDbLine
 10
3819.958741075378
 20
4638.99475660485
 30
0.0
 11
3859.495508166098
 21
4313.380184667309
 31
0.0
  0
LINE
  5
3BD
330
2
100
AcDbEntity
  8
6
100
AcDbLine
 10
3513.985817962735
 20
4502.489572887306
 30
0.0
 11
3700.31452335255
 21
4232.545839939475
 31
0.0
  0
TEXT
  5
3BE
330
2
100
AcDbEntity
  8
3
100
AcDbText
 10
3581.318445812375
 20
4162.575059380793
 30
0.0
 40
60.0
  1
２
100
AcDbText
  0
TEXT
  5
3BF
330
2
100
AcDbEntity
  8
3
100
AcDbText
 10
3743.525540290758
 20
4289.078769257035
 30
0.0
 40
60.0
  1
３
100
AcDbText
  0
DIMENSION
  5
3C0
330
2
100
AcDbEntity
  8
0
100
AcDbDimension
  2
*D19
 10
5040.802259671917
 20
539.2415127246602
 30
0.0
 11
4970.802259671916
 21
1344.241512724667
 31
0.0
  3
STANDARD
100
AcDbAlignedDimension
 13
4221.26233472941
 23
2149.241512724672
 33
0.0
 14
4272.447369852488
 24
539.2415127246604
 34
0.0
 50
90.0
100
AcDbRotatedDimension
1001
ACAD
1000
DSTYLE
1002
{
1070
    41
1040
3.0
1070
   140
1040
5.0
1002
}
  0
LINE
  5
3CD
330
2
100
AcDbEntity
  8
4
100
AcDbLine
 10
4040.389443034282
 20
1344.241512724659
 30
0.0
 11
4040.389443034282
 21
2189.241512724666
 31
0.0
  0
LINE
  5
3CE
330
2
100
AcDbEntity
  8
1
100
AcDbLine
 10
4123.389443034278
 20
1544.621238401632
 30
0.0
 11
4515.886345288308
 21
1937.118140655663
 31
0.0
  0
DIMENSION
  5
3CF
330
2
100
AcDbEntity
  8
0
100
AcDbDimension
  2
*D17
 10
4040.389443034285
 20
1344.241512724659
 30
0.0
 11
4397.897180081752
 21
1614.553584155296
 31
0.0
 70
   132
  3
STANDARD
100
AcDbRadialDimension
 15
4682.504043930572
 25
1829.74520922532
 35
0.0
 40
0.0
1001
ACAD
1000
DSTYLE
1002
{
1070
   140
1040
3.0
1070
    41
1040
3.0
1002
}
  0
LINE
  5
3D8
330
2
100
AcDbEntity
  8
1
100
AcDbLine
 10
4123.389443034278
 20
1468.4597910259
 30
0.0
 11
4706.57536174497
 21
1710.023307940882
 31
0.0
  0
LINE
  5
3D9
330
2
100
AcDbEntity
  8
1
100
AcDbLine
 10
4070.389443034278
 20
2189.241512724666
 30
0.0
 11
4070.389443034277
 21
1379.241512724665
 31
0.0
  0
LINE
  5
3DA
330
2
100
AcDbEntity
  8
1
100
AcDbLine
 10
4010.389443034278
 20
2189.241512724666
 30
0.0
 11
4010.389443034276
 21
1379.241512724665
 31
0.0
  0
LINE
  5
3DB
330
2
100
AcDbEntity
  8
6
100
AcDbLine
 10
4123.389443034278
 20
1761.510690571112
 30
0.0
 11
3963.707441835841
 21
1376.004237610968
 31
0.0
  0
LINE
  5
3DC
330
2
100
AcDbEntity
  8
1
100
AcDbLine
 10
4123.389443034279
 20
1344.241512724666
 30
0.0
 11
4123.389443034279
 21
2339.241512724667
 31
0.0
  0
LINE
  5
3DD
330
2
100
AcDbEntity
  8
1
100
AcDbLine
 10
4123.389443034279
 20
1378.621238401628
 30
0.0
 11
4633.266070965275
 21
868.7446104706351
 31
0.0
  0
LINE
  5
3DE
330
2
100
AcDbEntity
  8
1
100
AcDbLine
 10
4123.389443034279
 20
1399.700339671966
 30
0.0
 11
4770.100811517575
 21
1131.823719905321
 31
0.0
  0
LINE
  5
3DF
330
2
100
AcDbEntity
  8
1
100
AcDbLine
 10
4123.389443034279
 20
1427.241512724664
 30
0.0
 11
4795.843611068321
 21
1427.241512724665
 31
0.0
  0
LINE
  5
3E0
330
2
100
AcDbEntity
  8
1
100
AcDbLine
 10
4123.389443034277
 20
1344.241512724664
 30
0.0
 11
4123.389443034277
 21
588.7873446906223
 31
0.0
  0
LINE
  5
3E1
330
2
100
AcDbEntity
  8
1
100
AcDbLine
 10
4123.389443034279
 20
1360.751239217172
 30
0.0
 11
4406.171238250495
 21
678.055594013972
 31
0.0
  0
TEXT
  5
3E2
330
2
100
AcDbEntity
  8
3
100
AcDbText
 10
3981.91627436587
 20
658.9013971618761
 30
0.0
 40
60.0
  1
９
100
AcDbText
  0
TEXT
  5
3E3
330
2
100
AcDbEntity
  8
3
100
AcDbText
 10
4217.559026936481
 20
690.1071298322086
 30
0.0
 40
60.0
  1
８
100
AcDbText
  0
TEXT
  5
3E4
330
2
100
AcDbEntity
  8
3
100
AcDbText
 10
4443.194404515049
 20
809.8198218421948
 30
0.0
 40
60.0
  1
７
100
AcDbText
  0
ARC
  5
3E5
330
2
100
AcDbEntity
  8
1
100
AcDbCircle
 10
4040.389443034277
 20
1344.241512724666
 30
0.0
 40
73.0
100
AcDbArc
 50
114.2650859026815
 51
65.73491409731843
  0
LINE
  5
3E6
330
2
100
AcDbEntity
  8
6
100
AcDbLine
 10
4123.389443034278
 20
1378.621238401629
 30
0.0
 11
4099.07930587276
 21
1402.931375563147
 31
0.0
  0
LINE
  5
3E7
330
2
100
AcDbEntity
  8
6
100
AcDbLine
 10
4123.389443034278
 20
1468.4597910259
 30
0.0
 11
4008.626718147975
 21
1420.923513923102
 31
0.0
  0
LINE
  5
3E8
330
2
100
AcDbEntity
  8
6
100
AcDbLine
 10
4123.389443034278
 20
1427.241512724664
 30
0.0
 11
4040.389443034277
 21
1427.241512724664
 31
0.0
  0
LINE
  5
3E9
330
2
100
AcDbEntity
  8
6
100
AcDbLine
 10
4123.389443034278
 20
1399.700339671966
 30
0.0
 11
4072.15216792058
 21
1420.923513923101
 31
0.0
  0
LINE
  5
3EA
330
2
100
AcDbEntity
  8
6
100
AcDbLine
 10
4123.389443034278
 20
1544.621238401631
 30
0.0
 11
3981.699580195794
 21
1402.931375563149
 31
0.0
  0
CIRCLE
  5
3EB
330
2
100
AcDbEntity
  8
1
100
AcDbCircle
 10
4040.389443034277
 20
1344.241512724666
 30
0.0
 40
30.0
  0
LINE
  5
3EC
330
2
100
AcDbEntity
  8
1
100
AcDbLine
 10
4075.389443034277
 20
1379.241512724665
 30
0.0
 11
4005.389443034277
 21
1309.241512724665
 31
0.0
  0
LINE
  5
3ED
330
2
100
AcDbEntity
  8
1
100
AcDbLine
 10
4005.389443034277
 20
1379.241512724665
 30
0.0
 11
4075.389443034277
 21
1309.241512724665
 31
0.0
  0
LWPOLYLINE
  5
3EE
330
2
100
AcDbEntity
  8
1
100
AcDbPolyline
 90
        4
 70
     1
 43
0.0
 10
4075.389443034277
 20
1309.241512724665
 10
4005.389443034277
 20
1309.241512724665
 10
4005.389443034277
 20
1379.241512724665
 10
4075.389443034277
 20
1379.241512724665
  0
LINE
  5
3EF
330
2
100
AcDbEntity
  8
6
100
AcDbLine
 10
4123.389443034278
 20
1360.751239217171
 30
0.0
 11
4117.071444232712
 21
1376.004237610967
 31
0.0
  0
TEXT
  5
3F0
330
2
100
AcDbEntity
  8
3
100
AcDbText
 10
4671.115351052177
 20
1269.663330141716
 30
0.0
 40
60.0
  1
５
100
AcDbText
  0
TEXT
  5
3F1
330
2
100
AcDbEntity
  8
3
100
AcDbText
 10
4614.823572073298
 20
1064.942332032381
 30
0.0
 40
60.0
  1
６
100
AcDbText
  0
TEXT
  5
3F2
330
2
100
AcDbEntity
  8
3
100
AcDbText
 10
4652.770467162688
 20
1479.651516336439
 30
0.0
 40
60.0
  1
４
100
AcDbText
  0
DIMENSION
  5
3F3
330
2
100
AcDbEntity
  8
0
100
AcDbDimension
  2
*D8
 10
4910.703248265105
 20
3205.051691068641
 30
0.0
 11
4840.703248265104
 21
3950.051691068642
 31
0.0
  3
STANDARD
100
AcDbAlignedDimension
 13
4109.874751868894
 23
4695.051691068643
 33
0.0
 14
4115.226288234676
 24
3205.051691068641
 34
0.0
 50
90.0
100
AcDbRotatedDimension
1001
ACAD
1000
DSTYLE
1002
{
1070
   140
1040
5.0
1002
}
  0
ARC
  5
400
330
2
100
AcDbEntity
  8
6
100
AcDbCircle
 10
4644.572859982395
 20
5243.225976265192
 30
0.0
 40
1383.304102692104
100
AcDbArc
 50
241.5495519289365
 51
243.1330467961644
  0
ARC
  5
401
330
2
100
AcDbEntity
  8
1
100
AcDbCircle
 10
5367.166757453724
 20
4320.903011096343
 30
0.0
 40
1383.304102692104
100
AcDbArc
 50
180.0
 51
194.6042942249304
  0
LINE
  5
402
330
2
100
AcDbEntity
  8
1
100
AcDbLine
 10
3973.88392999826
 20
3985.0516784504
 30
0.0
 11
3973.88392999826
 21
4745.05146591138
 31
0.0
  0
LINE
  5
403
330
2
100
AcDbEntity
  8
1
100
AcDbLine
 10
4123.389443034278
 20
2189.241512724666
 30
0.0
 11
4861.270323940496
 21
2189.241512724664
 31
0.0
  0
LINE
  5
404
330
2
100
AcDbEntity
  8
1
100
AcDbLine
 10
4123.389443034278
 20
1761.510690571114
 30
0.0
 11
4252.807235853622
 21
2073.952881207963
 31
0.0
  0
ARC
  5
405
330
2
100
AcDbEntity
  8
6
100
AcDbCircle
 10
4040.389443034277
 20
1344.241512724666
 30
0.0
 40
805.0000000000059
100
AcDbArc
 50
84.67889085270483
 51
93.41842200409832
  0
ARC
  5
406
330
2
100
AcDbEntity
  8
6
100
AcDbCircle
 10
4040.389443034277
 20
1344.241512724666
 30
0.0
 40
760.0000000000059
100
AcDbArc
 50
84.39630631630315
 51
93.62109091120222
  0
TEXT
  5
407
330
2
100
AcDbEntity
  8
3
100
AcDbText
 10
4133.583827740557
 20
1974.951280003123
 30
0.0
 40
60.0
  1
１
100
AcDbText
  0
TEXT
  5
408
330
2
100
AcDbEntity
  8
3
100
AcDbText
 10
4504.050377711418
 20
1750.284087317199
 30
0.0
 40
60.0
  1
３
100
AcDbText
  0
TEXT
  5
409
330
2
100
AcDbEntity
  8
3
100
AcDbText
 10
4313.188889029365
 20
1901.291062396175
 30
0.0
 40
60.0
  1
２
100
AcDbText
  0
DIMENSION
  5
40A
330
2
100
AcDbEntity
  8
0
100
AcDbDimension
  2
*D42
 10
5040.802259671917
 20
2189.241512724664
 30
0.0
 11
4970.802259671916
 21
2169.241512724668
 31
0.0
  3
STANDARD
100
AcDbAlignedDimension
 13
5040.802259671917
 23
2149.241512724672
 33
0.0
 14
4861.270323940496
 24
2189.241512724664
 34
0.0
 50
90.0
100
AcDbRotatedDimension
1001
ACAD
1000
DSTYLE
1002
{
1070
   140
1040
5.0
1002
}
  0
LINE
  5
418
330
2
100
AcDbEntity
  8
1
100
AcDbLine
 10
4632.001364179821
 20
3821.62117765619
 30
0.0
 11
4313.526519734929
 21
3900.11817674441
 31
0.0
  0
LINE
  5
419
330
2
100
AcDbEntity
  8
1
100
AcDbLine
 10
4229.082945541014
 20
3310.785297822878
 30
0.0
 11
4112.770377461857
 21
3617.476334400222
 31
0.0
  0
TEXT
  5
41A
330
2
100
AcDbEntity
  8
3
100
AcDbText
 10
3986.739584964593
 20
3323.195664368833
 30
0.0
 40
60.0
  1
１０
100
AcDbText
  0
ARC
  5
41B
330
2
100
AcDbEntity
  8
1
100
AcDbCircle
 10
4644.572859982395
 20
5243.225976265192
 30
0.0
 40
1383.304102692104
100
AcDbArc
 50
243.1330467961644
 51
256.1538461538511
  0
LINE
  5
41C
330
2
100
AcDbEntity
  8
1
100
AcDbLine
 10
4493.497022871104
 20
3516.548002338375
 30
0.0
 11
4247.980927250601
 21
3734.056283103311
 31
0.0
  0
ARC
  5
41D
330
2
100
AcDbEntity
  8
1
100
AcDbCircle
 10
5406.182182052344
 20
4108.002729480825
 30
0.0
 40
1383.304102692104
100
AcDbArc
 50
186.1649365442985
 51
200.7692307692599
  0
ARC
  5
41E
330
2
100
AcDbEntity
  8
1
100
AcDbCircle
 10
5165.281220983187
 20
4769.474271957527
 30
0.0
 40
1383.304102692104
100
AcDbArc
 50
213.8572442365833
 51
228.4615384615448
  0
TEXT
  5
41F
330
2
100
AcDbEntity
  8
3
100
AcDbText
 10
4472.593417161663
 20
3671.966297585015
 30
0.0
 40
60.0
  1
８
100
AcDbText
  0
TEXT
  5
420
330
2
100
AcDbEntity
  8
3
100
AcDbText
 10
4299.493449235952
 20
3445.263212685347
 30
0.0
 40
60.0
  1
９
100
AcDbText
  0
TEXT
  5
421
330
2
100
AcDbEntity
  8
3
100
AcDbText
 10
4513.224842881785
 20
3954.426618030972
 30
0.0
 40
60.0
  1
７
100
AcDbText
  0
DIMENSION
  5
422
330
2
100
AcDbEntity
  8
0
100
AcDbDimension
  2
*D36
 10
4910.703248265105
 20
4745.051465911381
 30
0.0
 11
4840.703248265104
 21
4720.051578490013
 31
0.0
  1
40.0
  3
STANDARD
100
AcDbAlignedDimension
 13
4109.874751868894
 23
4695.051691068643
 33
0.0
 14
4698.434675898527
 24
4745.051465911381
 34
0.0
 50
90.0
100
AcDbRotatedDimension
1001
ACAD
1000
DSTYLE
1002
{
1070
   140
1040
5.0
1002
}
  0
LINE
  5
431
330
2
100
AcDbEntity
  8
1
100
AcDbLine
 10
3983.862654761622
 20
4745.051465911381
 30
0.0
 11
4698.434675898527
 21
4745.051465911381
 31
0.0
  0
LINE
  5
432
330
2
100
AcDbEntity
  8
1
100
AcDbLine
 10
4612.866294031593
 20
4156.116235841324
 30
0.0
 11
4294.3914495867
 21
4077.619236753109
 31
0.0
  0
LINE
  5
433
330
2
100
AcDbEntity
  8
1
100
AcDbLine
 10
4154.321431509824
 20
4617.671386672038
 30
0.0
 11
4038.008863430663
 21
4310.980350094694
 31
0.0
  0
LINE
  5
434
330
2
100
AcDbEntity
  8
1
100
AcDbLine
 10
3983.862654761622
 20
4795.05146591138
 30
0.0
 11
3983.862654761621
 21
4320.903011096347
 31
0.0
  0
ARC
  5
435
330
2
100
AcDbEntity
  8
1
100
AcDbCircle
 10
3963.345109339238
 20
5420.727036273893
 30
0.0
 40
1383.304102692104
100
AcDbArc
 50
272.0585461232995
 51
283.8461538461487
  0
TEXT
  5
436
330
2
100
AcDbEntity
  8
3
100
AcDbText
 10
4229.684415212708
 20
4435.691812485287
 30
0.0
 40
60.0
  1
５
100
AcDbText
  0
LINE
  5
437
330
2
100
AcDbEntity
  8
1
100
AcDbLine
 10
4440.475426394786
 20
4443.404390166009
 30
0.0
 11
4194.95933077428
 21
4225.896109401078
 31
0.0
  0
ARC
  5
438
330
2
100
AcDbEntity
  8
1
100
AcDbCircle
 10
3277.659037041695
 20
5261.314098255301
 30
0.0
 40
1383.304102692104
100
AcDbArc
 50
301.6862268614707
 51
311.5384615384551
  0
ARC
  5
439
330
2
100
AcDbEntity
  8
1
100
AcDbCircle
 10
2744.597058840174
 20
4801.506745175309
 30
0.0
 40
1383.304102692104
100
AcDbArc
 50
334.1351651131683
 51
339.23076923074
  0
TEXT
  5
43A
330
2
100
AcDbEntity
  8
3
100
AcDbText
 10
3985.939358866266
 20
4519.081049645574
 30
0.0
 40
60.0
  1
４
100
AcDbText
  0
TEXT
  5
43B
330
2
100
AcDbEntity
  8
3
100
AcDbText
 10
4434.896495899244
 20
4229.433597088905
 30
0.0
 40
60.0
  1
６
100
AcDbText
  0
ENDSEC
  0
SECTION
  2
OBJECTS
  0
DICTIONARY
  5
7
330
0
100
AcDbDictionary
  3
ACAD_GROUP
350
2D
  3
ACAD_LAYOUT
350
B
  3
ACAD_MLINESTYLE
350
2E
  3
ACAD_PLOTSETTINGS
350
2F
  3
ACAD_PLOTSTYLENAME
350
6
  3
ACDBHEADERROUNDTRIPXREC
350
43F
  3
ACDBVARIABLEDICTIONARY
350
43C
  0
DICTIONARY
  5
15
330
14
100
AcDbDictionary
280
     1
  3
ACAD_LAYERFILTERS
360
16
  0
DICTIONARY
  5
460
330
2
100
AcDbDictionary
280
     1
  3
ACAD_LAYOUTSELFREF
360
461
  0
DICTIONARY
  5
462
330
E
100
AcDbDictionary
280
     1
  3
ACAD_LAYOUTSELFREF
360
463
  0
DICTIONARY
  5
2D
102
{ACAD_REACTORS
330
7
102
}
330
7
100
AcDbDictionary
  0
DICTIONARY
  5
B
102
{ACAD_REACTORS
330
7
102
}
330
7
100
AcDbDictionary
  0
DICTIONARY
  5
2E
102
{ACAD_REACTORS
330
7
102
}
330
7
100
AcDbDictionary
  3
STANDARD
350
31
  0
DICTIONARY
  5
2F
102
{ACAD_REACTORS
330
7
102
}
330
7
100
AcDbDictionary
  0
ACDBDICTIONARYWDFLT
  5
6
102
{ACAD_REACTORS
330
7
102
}
330
7
100
AcDbDictionary
281
     1
  3
Normal
350
5
100
AcDbDictionaryWithDefault
340
5
  0
DICTIONARY
  5
43F
102
{ACAD_REACTORS
330
7
102
}
330
7
100
AcDbDictionary
  3
CEPSNTYPE
350
449
  3
DIMSTYLEDATA
350
44D
  3
FINGERPRINTGUID
350
44A
  3
HYPERLINKBASE
350
442
  3
INSUNITS
350
448
  3
LAYOUTDICT
350
444
  3
LWETCUNION
350
447
  3
PLOTSETDICT
350
445
  3
PLOTSTYLNAMDICT
350
446
  3
PSVPSCALE
350
44C
  3
PUCSBASE
350
450
  3
PUCSORGBACK
350
456
  3
PUCSORGBOTTOM
350
452
  3
PUCSORGFRONT
350
455
  3
PUCSORGLEFT
350
453
  3
PUCSORGRIGHT
350
454
  3
PUCSORGTOP
350
451
  3
PUCSORTHOREF
350
44E
  3
PUCSORTHOVIEW
350
44F
  3
STYLESHEET
350
443
  3
TSTACKALIGN
350
440
  3
TSTACKSIZE
350
441
  3
UCSBASE
350
459
  3
UCSORGBACK
350
45F
  3
UCSORGBOTTOM
350
45B
  3
UCSORGFRONT
350
45E
  3
UCSORGLEFT
350
45C
  3
UCSORGRIGHT
350
45D
  3
UCSORGTOP
350
45A
  3
UCSORTHOREF
350
457
  3
UCSORTHOVIEW
350
458
  3
VERSIONGUID
350
44B
  0
DICTIONARY
  5
43C
102
{ACAD_REACTORS
330
7
102
}
330
7
100
AcDbDictionary
  3
DIMASSOC
350
43E
  3
HIDETEXT
350
43D
  0
DICTIONARY
  5
16
102
{ACAD_REACTORS
330
15
102
}
330
15
100
AcDbDictionary
280
     1
  3
50
360
17
  0
XRECORD
  5
461
102
{ACAD_REACTORS
330
460
102
}
330
460
100
AcDbXrecord
340
2
  0
XRECORD
  5
463
102
{ACAD_REACTORS
330
462
102
}
330
462
100
AcDbXrecord
340
E
  0
MLINESTYLE
  5
31
102
{ACAD_REACTORS
330
2E
102
}
330
2E
100
AcDbMlineStyle
  2
STANDARD
 70
     0
  3

 62
     0
 51
90.0
 52
90.0
 71
     2
 49
0.5
 62
   256
  6
BYLAYER
 49
-0.5
 62
   256
  6
BYLAYER
  0
ACDBPLACEHOLDER
  5
5
102
{ACAD_REACTORS
330
6
102
}
330
6
100
AcDbPlaceHolder
280
     0
  0
XRECORD
  5
449
102
{ACAD_REACTORS
330
43F
102
}
330
43F
100
AcDbXrecord
 90
        0
  0
XRECORD
  5
44D
102
{ACAD_REACTORS
330
43F
102
}
330
43F
100
AcDbXrecord
1000
DSTYLE
1002
{
1070
   179
 70
     1
1070
   341
340
26
1070
   343
340
26
1070
   344
340
26
1002
}
  0
XRECORD
  5
44A
102
{ACAD_REACTORS
330
43F
102
}
330
43F
100
AcDbXrecord
  1
{A6916C7A-E337-11D3-A217-00004C9953A3}
  0
XRECORD
  5
442
102
{ACAD_REACTORS
330
43F
102
}
330
43F
100
AcDbXrecord
  1

  0
XRECORD
  5
448
102
{ACAD_REACTORS
330
43F
102
}
330
43F
100
AcDbXrecord
 90
        0
  0
XRECORD
  5
444
102
{ACAD_REACTORS
330
43F
102
}
330
43F
100
AcDbXrecord
340
B
  0
XRECORD
  5
447
102
{ACAD_REACTORS
330
43F
102
}
330
43F
100
AcDbXrecord
 90
    10781
  0
XRECORD
  5
445
102
{ACAD_REACTORS
330
43F
102
}
330
43F
100
AcDbXrecord
340
2F
  0
XRECORD
  5
446
102
{ACAD_REACTORS
330
43F
102
}
330
43F
100
AcDbXrecord
340
6
  0
XRECORD
  5
44C
102
{ACAD_REACTORS
330
43F
102
}
330
43F
100
AcDbXrecord
 40
0.0
  0
XRECORD
  5
450
102
{ACAD_REACTORS
330
43F
102
}
330
43F
100
AcDbXrecord
340
0
  0
XRECORD
  5
456
102
{ACAD_REACTORS
330
43F
102
}
330
43F
100
AcDbXrecord
 10
0.0
 20
0.0
 30
0.0
  0
XRECORD
  5
452
102
{ACAD_REACTORS
330
43F
102
}
330
43F
100
AcDbXrecord
 10
0.0
 20
0.0
 30
0.0
  0
XRECORD
  5
455
102
{ACAD_REACTORS
330
43F
102
}
330
43F
100
AcDbXrecord
 10
0.0
 20
0.0
 30
0.0
  0
XRECORD
  5
453
102
{ACAD_REACTORS
330
43F
102
}
330
43F
100
AcDbXrecord
 10
0.0
 20
0.0
 30
0.0
  0
XRECORD
  5
454
102
{ACAD_REACTORS
330
43F
102
}
330
43F
100
AcDbXrecord
 10
0.0
 20
0.0
 30
0.0
  0
XRECORD
  5
451
102
{ACAD_REACTORS
330
43F
102
}
330
43F
100
AcDbXrecord
 10
0.0
 20
0.0
 30
0.0
  0
XRECORD
  5
44E
102
{ACAD_REACTORS
330
43F
102
}
330
43F
100
AcDbXrecord
340
0
  0
XRECORD
  5
44F
102
{ACAD_REACTORS
330
43F
102
}
330
43F
100
AcDbXrecord
 70
     0
  0
XRECORD
  5
443
102
{ACAD_REACTORS
330
43F
102
}
330
43F
100
AcDbXrecord
  1

  0
XRECORD
  5
440
102
{ACAD_REACTORS
330
43F
102
}
330
43F
100
AcDbXrecord
 90
        1
  0
XRECORD
  5
441
102
{ACAD_REACTORS
330
43F
102
}
330
43F
100
AcDbXrecord
 90
       70
  0
XRECORD
  5
459
102
{ACAD_REACTORS
330
43F
102
}
330
43F
100
AcDbXrecord
340
0
  0
XRECORD
  5
45F
102
{ACAD_REACTORS
330
43F
102
}
330
43F
100
AcDbXrecord
 10
0.0
 20
0.0
 30
0.0
  0
XRECORD
  5
45B
102
{ACAD_REACTORS
330
43F
102
}
330
43F
100
AcDbXrecord
 10
0.0
 20
0.0
 30
0.0
  0
XRECORD
  5
45E
102
{ACAD_REACTORS
330
43F
102
}
330
43F
100
AcDbXrecord
 10
0.0
 20
0.0
 30
0.0
  0
XRECORD
  5
45C
102
{ACAD_REACTORS
330
43F
102
}
330
43F
100
AcDbXrecord
 10
0.0
 20
0.0
 30
0.0
  0
XRECORD
  5
45D
102
{ACAD_REACTORS
330
43F
102
}
330
43F
100
AcDbXrecord
 10
0.0
 20
0.0
 30
0.0
  0
XRECORD
  5
45A
102
{ACAD_REACTORS
330
43F
102
}
330
43F
100
AcDbXrecord
 10
0.0
 20
0.0
 30
0.0
  0
XRECORD
  5
457
102
{ACAD_REACTORS
330
43F
102
}
330
43F
100
AcDbXrecord
340
0
  0
XRECORD
  5
458
102
{ACAD_REACTORS
330
43F
102
}
330
43F
100
AcDbXrecord
 70
     0
  0
XRECORD
  5
44B
102
{ACAD_REACTORS
330
43F
102
}
330
43F
100
AcDbXrecord
  1
{BB418326-CD77-4819-AA93-8E266F07C186}
  0
DICTIONARYVAR
  5
43E
102
{ACAD_REACTORS
330
43C
102
}
330
43C
100
DictionaryVariables
280
     0
  1
1
  0
DICTIONARYVAR
  5
43D
102
{ACAD_REACTORS
330
43C
102
}
330
43C
100
DictionaryVariables
280
     0
  1
1
  0
XRECORD
  5
17
102
{ACAD_REACTORS
330
16
102
}
330
16
100
AcDbXrecord
  1
50
  1
*-50
  1
*
  1
*
 70
     0
  1
*
  1
*
  0
ENDSEC
  0
EOF
