  0
SECTION
  2
HEADER
  9
$ACADVER
  1
AC1014
  9
$ACADMAINTVER
 70
     9
  9
$DWGCODEPAGE
  3
ANSI_932
  9
$INSBASE
 10
0.0
 20
0.0
 30
0.0
  9
$EXTMIN
 10
0.0
 20
0.0
 30
0.0
  9
$EXTMAX
 10
7920.000000000318
 20
5460.000000000219
 30
0.0
  9
$LIMMIN
 10
0.0
 20
0.0
  9
$LIMMAX
 10
7920.0
 20
5460.0
  9
$ORTHOMODE
 70
     0
  9
$REGENMODE
 70
     0
  9
$FILLMODE
 70
     1
  9
$QTEXTMODE
 70
     0
  9
$MIRRTEXT
 70
     0
  9
$DRAGMODE
 70
     2
  9
$LTSCALE
 40
200.0
  9
$OSMODE
 70
    45
  9
$ATTMODE
 70
     1
  9
$TEXTSIZE
 40
30.0
  9
$TRACEWID
 40
0.05
  9
$TEXTSTYLE
  7
STANDARD
  9
$CLAYER
  8
0
  9
$CELTYPE
  6
BYLAYER
  9
$CECOLOR
 62
   256
  9
$CELTSCALE
 40
1.0
  9
$DELOBJ
 70
     1
  9
$DISPSILH
 70
     0
  9
$DIMSCALE
 40
20.0
  9
$DIMASZ
 40
2.0
  9
$DIMEXO
 40
0.0
  9
$DIMDLI
 40
10.0
  9
$DIMRND
 40
0.0
  9
$DIMDLE
 40
2.0
  9
$DIMEXE
 40
0.0
  9
$DIMTP
 40
0.0
  9
$DIMTM
 40
0.0
  9
$DIMTXT
 40
2.0
  9
$DIMCEN
 40
0.0
  9
$DIMTSZ
 40
0.0
  9
$DIMTOL
 70
     0
  9
$DIMLIM
 70
     0
  9
$DIMTIH
 70
     0
  9
$DIMTOH
 70
     0
  9
$DIMSE1
 70
     0
  9
$DIMSE2
 70
     0
  9
$DIMTAD
 70
     3
  9
$DIMZIN
 70
     0
  9
$DIMBLK
  1

  9
$DIMASO
 70
     1
  9
$DIMSHO
 70
     1
  9
$DIMPOST
  1

  9
$DIMAPOST
  1

  9
$DIMALT
 70
     0
  9
$DIMALTD
 70
     2
  9
$DIMALTF
 40
25.4
  9
$DIMLFAC
 40
1.0
  9
$DIMTOFL
 70
     1
  9
$DIMTVP
 40
0.0
  9
$DIMTIX
 70
     1
  9
$DIMSOXD
 70
     0
  9
$DIMSAH
 70
     1
  9
$DIMBLK1
  1
OPEN
  9
$DIMBLK2
  1
OPEN
  9
$DIMSTYLE
  2
STANDARD
  9
$DIMCLRD
 70
     0
  9
$DIMCLRE
 70
     0
  9
$DIMCLRT
 70
     0
  9
$DIMTFAC
 40
1.0
  9
$DIMGAP
 40
1.0
  9
$DIMJUST
 70
     0
  9
$DIMSD1
 70
     0
  9
$DIMSD2
 70
     0
  9
$DIMTOLJ
 70
     1
  9
$DIMTZIN
 70
     0
  9
$DIMALTZ
 70
     0
  9
$DIMALTTZ
 70
     0
  9
$DIMFIT
 70
     3
  9
$DIMUPT
 70
     0
  9
$DIMUNIT
 70
     2
  9
$DIMDEC
 70
     1
  9
$DIMTDEC
 70
     1
  9
$DIMALTU
 70
     2
  9
$DIMALTTD
 70
     2
  9
$DIMTXSTY
  7
STANDARD
  9
$DIMAUNIT
 70
     1
  9
$LUNITS
 70
     2
  9
$LUPREC
 70
     1
  9
$SKETCHINC
 40
0.1
  9
$FILLETRAD
 40
0.0
  9
$AUNITS
 70
     1
  9
$AUPREC
 70
     2
  9
$MENU
  1
A:\r13jc4\win\SUPPORT\naruex
  9
$ELEVATION
 40
0.0
  9
$PELEVATION
 40
0.0
  9
$THICKNESS
 40
0.0
  9
$LIMCHECK
 70
     0
  9
$BLIPMODE
 70
     0
  9
$CHAMFERA
 40
0.0
  9
$CHAMFERB
 40
0.0
  9
$CHAMFERC
 40
0.0
  9
$CHAMFERD
 40
0.0
  9
$SKPOLY
 70
     0
  9
$TDCREATE
 40
2453594.621710787
  9
$TDUPDATE
 40
2453847.758067130
  9
$TDINDWG
 40
0.1766668519
  9
$TDUSRTIMER
 40
0.1766668519
  9
$USRTIMER
 70
     1
  9
$ANGBASE
 50
0.0
  9
$ANGDIR
 70
     0
  9
$PDMODE
 70
     0
  9
$PDSIZE
 40
0.0
  9
$PLINEWID
 40
0.0
  9
$COORDS
 70
     2
  9
$SPLFRAME
 70
     0
  9
$SPLINETYPE
 70
     6
  9
$SPLINESEGS
 70
     8
  9
$ATTDIA
 70
     0
  9
$ATTREQ
 70
     1
  9
$HANDLING
 70
     1
  9
$HANDSEED
  5
27E
  9
$SURFTAB1
 70
     6
  9
$SURFTAB2
 70
     6
  9
$SURFTYPE
 70
     6
  9
$SURFU
 70
     6
  9
$SURFV
 70
     6
  9
$UCSNAME
  2

  9
$UCSORG
 10
0.0
 20
0.0
 30
0.0
  9
$UCSXDIR
 10
1.0
 20
0.0
 30
0.0
  9
$UCSYDIR
 10
0.0
 20
1.0
 30
0.0
  9
$PUCSNAME
  2

  9
$PUCSORG
 10
0.0
 20
0.0
 30
0.0
  9
$PUCSXDIR
 10
1.0
 20
0.0
 30
0.0
  9
$PUCSYDIR
 10
0.0
 20
1.0
 30
0.0
  9
$USERI1
 70
     0
  9
$USERI2
 70
     0
  9
$USERI3
 70
     0
  9
$USERI4
 70
     0
  9
$USERI5
 70
     0
  9
$USERR1
 40
0.0
  9
$USERR2
 40
0.0
  9
$USERR3
 40
0.0
  9
$USERR4
 40
0.0
  9
$USERR5
 40
0.0
  9
$WORLDVIEW
 70
     1
  9
$SHADEDGE
 70
     3
  9
$SHADEDIF
 70
    70
  9
$TILEMODE
 70
     1
  9
$MAXACTVP
 70
    16
  9
$PINSBASE
 10
0.0
 20
0.0
 30
0.0
  9
$PLIMCHECK
 70
     0
  9
$PEXTMIN
 10
0.4298860490205838
 20
0.4907718120804656
 30
0.0
  9
$PEXTMAX
 10
13.23596519353089
 20
8.358221476510134
 30
0.0
  9
$PLIMMIN
 10
0.0
 20
0.0
  9
$PLIMMAX
 10
12.0
 20
9.0
  9
$UNITMODE
 70
     0
  9
$VISRETAIN
 70
     0
  9
$PLINEGEN
 70
     0
  9
$PSLTSCALE
 70
     0
  9
$TREEDEPTH
 70
  3020
  9
$PICKSTYLE
 70
     1
  9
$CMLSTYLE
  2
STANDARD
  9
$CMLJUST
 70
     0
  9
$CMLSCALE
 40
1.0
  9
$PROXYGRAPHICS
 70
     1
  9
$MEASUREMENT
 70
     1
  0
ENDSEC
  0
SECTION
  2
CLASSES
  0
CLASS
  1
LWPOLYLINE
  2
AcDbPolyline
  3
AutoCAD 2000
 90
        0
280
     0
281
     1
  0
CLASS
  1
ACDBDICTIONARYWDFLT
  2
AcDbDictionaryWithDefault
  3
AutoCAD 2000
 90
        0
280
     0
281
     0
  0
CLASS
  1
ACDBPLACEHOLDER
  2
AcDbPlaceHolder
  3
AutoCAD 2000
 90
        0
280
     0
281
     0
  0
CLASS
  1
LAYOUT
  2
AcDbLayout
  3
AutoCAD 2000
 90
        0
280
     0
281
     0
  0
CLASS
  1
DICTIONARYVAR
  2
AcDbDictionaryVar
  3
AutoCAD 2000
 90
        0
280
     0
281
     0
  0
CLASS
  1
LONG_TRANSACTION
  2
AcDbLongTransaction
  3
AutoCAD 2000
 90
        0
280
     0
281
     0
  0
CLASS
  1
LWPOLYLINE
  2
AcDbPolyline
  3
AutoCAD 2000
 90
        0
280
     0
281
     1
  0
CLASS
  1
HATCH
  2
AcDbHatch
  3
AutoCAD 2000
 90
        0
280
     0
281
     1
  0
CLASS
  1
XRECORD
  2
AcDbXrecord
  3
AutoCAD 2000
 90
        0
280
     0
281
     0
  0
ENDSEC
  0
SECTION
  2
TABLES
  0
TABLE
  2
VPORT
  5
19
330
0
100
AcDbSymbolTable
 70
     1
  0
VPORT
  5
1A
330
19
100
AcDbSymbolTableRecord
100
AcDbViewportTableRecord
  2
*ACTIVE
 70
     0
 10
0.0
 20
0.0
 11
1.0
 21
1.0
 12
3563.810627887098
 22
2811.969898139638
 13
0.0
 23
0.0
 14
100.0
 24
100.0
 15
0.0
 25
0.0
 16
0.0
 26
0.0
 36
1.0
 17
0.0
 27
0.0
 37
0.0
 40
1011.855803237232
 41
1.330827067669172
 42
50.0
 43
0.0
 44
0.0
 50
0.0
 51
0.0
 71
     0
 72
   100
 73
     1
 74
     1
 75
     0
 76
     0
 77
     0
 78
     0
  0
ENDTAB
  0
TABLE
  2
LTYPE
  5
14
330
0
100
AcDbSymbolTable
 70
     4
  0
LTYPE
  5
15
330
14
100
AcDbSymbolTableRecord
100
AcDbLinetypeTableRecord
  2
BYBLOCK
 70
     0
  3

 72
    65
 73
     0
 40
0.0
  0
LTYPE
  5
16
330
14
100
AcDbSymbolTableRecord
100
AcDbLinetypeTableRecord
  2
BYLAYER
 70
     0
  3

 72
    65
 73
     0
 40
0.0
  0
LTYPE
  5
8
330
14
100
AcDbSymbolTableRecord
100
AcDbLinetypeTableRecord
  2
CONTINUOUS
 70
     0
  3
Solid line
 72
    65
 73
     0
 40
0.0
  0
LTYPE
  5
4C
330
14
100
AcDbSymbolTableRecord
100
AcDbLinetypeTableRecord
  2
CENTER
 70
     0
  3
____ _ ____ _ ____ _ ____ _ ____ _ ____ _ ____ 
 72
    65
 73
     4
 40
2.0
 49
1.25
 74
     0
 49
-0.25
 74
     0
 49
0.25
 74
     0
 49
-0.25
 74
     0
  0
LTYPE
  5
1F2
330
14
100
AcDbSymbolTableRecord
100
AcDbLinetypeTableRecord
  2
HIDDEN
 70
     0
  3
__ __ __ __ __ __ __ __ __ __ __ __ __ __ __ __
 72
    65
 73
     2
 40
0.375
 49
0.25
 74
     0
 49
-0.125
 74
     0
  0
LTYPE
  5
4D
330
14
100
AcDbSymbolTableRecord
100
AcDbLinetypeTableRecord
  2
HIDDEN2
 70
     0
  3
_ _ _ _ _ _ _ _ _ _ _ _ _ _ _ _ _ _ _ _ _ _ _ _
 72
    65
 73
     2
 40
0.1875
 49
0.125
 74
     0
 49
-0.0625
 74
     0
  0
ENDTAB
  0
TABLE
  2
LAYER
  5
10
330
0
100
AcDbSymbolTable
 70
     7
  0
LAYER
  5
4
330
10
100
AcDbSymbolTableRecord
100
AcDbLayerTableRecord
  2
0
 70
     0
 62
     1
  6
CONTINUOUS
  0
LAYER
  5
33
330
10
100
AcDbSymbolTableRecord
100
AcDbLayerTableRecord
  2
DEFPOINTS
 70
     0
 62
    -7
  6
CONTINUOUS
  0
LAYER
  5
46
330
10
100
AcDbSymbolTableRecord
100
AcDbLayerTableRecord
  2
1
 70
     0
 62
     5
  6
CONTINUOUS
  0
LAYER
  5
48
330
10
100
AcDbSymbolTableRecord
100
AcDbLayerTableRecord
  2
2
 70
     0
 62
     7
  6
CONTINUOUS
  0
LAYER
  5
1D2
330
10
100
AcDbSymbolTableRecord
100
AcDbLayerTableRecord
  2
3
 70
     0
 62
     7
  6
CONTINUOUS
  0
LAYER
  5
4B
330
10
100
AcDbSymbolTableRecord
100
AcDbLayerTableRecord
  2
4
 70
     0
 62
     7
  6
CENTER
  0
LAYER
  5
1F1
330
10
100
AcDbSymbolTableRecord
100
AcDbLayerTableRecord
  2
6
 70
     0
 62
     6
  6
HIDDEN
  0
ENDTAB
  0
TABLE
  2
STYLE
  5
11
330
0
100
AcDbSymbolTable
 70
     1
  0
STYLE
  5
12
330
11
100
AcDbSymbolTableRecord
100
AcDbTextStyleTableRecord
  2
STANDARD
 70
     0
 40
0.0
 41
1.0
 50
0.0
 71
     0
 42
30.0
  3
TXT
  4
BIGFONT
  0
ENDTAB
  0
TABLE
  2
VIEW
  5
17
330
0
100
AcDbSymbolTable
 70
     0
  0
ENDTAB
  0
TABLE
  2
UCS
  5
18
330
0
100
AcDbSymbolTable
 70
     0
  0
ENDTAB
  0
TABLE
  2
APPID
  5
1B
330
0
100
AcDbSymbolTable
 70
     1
  0
APPID
  5
1C
330
1B
100
AcDbSymbolTableRecord
100
AcDbRegAppTableRecord
  2
ACAD
 70
     0
  0
ENDTAB
  0
TABLE
  2
DIMSTYLE
  5
1D
330
0
100
AcDbSymbolTable
 70
     1
  0
DIMSTYLE
105
1E
102
{ACAD_REACTORS
330
147
330
76
330
82
330
241
330
13C
330
8F
330
22C
330
200
330
5C
330
69
330
1F3
330
4F
330
128
330
1C4
330
156
330
199
330
18C
330
11B
330
10C
330
FF
330
175
330
168
330
F2
330
20F
330
E5
330
D8
330
C9
330
BD
330
AE
330
1A8
330
182
330
1BA
330
38
330
2A
330
9D
330
1D4
102
}
330
1D
100
AcDbSymbolTableRecord
100
AcDbDimStyleTableRecord
  2
STANDARD
 70
     0
  3

  4

  5

  6
OPEN
  7
OPEN
 40
20.0
 41
2.0
 42
0.0
 43
10.0
 44
0.0
 45
0.0
 46
2.0
 47
0.0
 48
0.0
140
2.0
141
0.0
142
0.0
143
25.4
144
1.0
145
0.0
146
1.0
147
1.0
 71
     0
 72
     0
 73
     0
 74
     0
 75
     0
 76
     0
 77
     3
 78
     0
170
     0
171
     2
172
     1
173
     1
174
     1
175
     0
176
     0
177
     0
178
     0
270
     2
271
     1
272
     1
273
     2
274
     2
340
12
275
     1
280
     0
281
     0
282
     0
283
     1
284
     0
285
     0
286
     0
287
     3
288
     0
  0
ENDTAB
  0
TABLE
  2
BLOCK_RECORD
  5
1
330
0
100
AcDbSymbolTable
 70
    37
  0
BLOCK_RECORD
  5
2
102
{ACAD_XDICTIONARY
360
27A
102
}
330
1
100
AcDbSymbolTableRecord
100
AcDbBlockTableRecord
  2
*MODEL_SPACE
  0
BLOCK_RECORD
  5
C
102
{ACAD_XDICTIONARY
360
27C
102
}
330
1
100
AcDbSymbolTableRecord
100
AcDbBlockTableRecord
  2
*PAPER_SPACE
  0
BLOCK_RECORD
  5
1F
330
1
100
AcDbSymbolTableRecord
100
AcDbBlockTableRecord
  2
_OPEN
  0
BLOCK_RECORD
  5
90
330
1
100
AcDbSymbolTableRecord
100
AcDbBlockTableRecord
  2
*D1
  0
BLOCK_RECORD
  5
148
330
1
100
AcDbSymbolTableRecord
100
AcDbBlockTableRecord
  2
*D2
  0
BLOCK_RECORD
  5
77
330
1
100
AcDbSymbolTableRecord
100
AcDbBlockTableRecord
  2
*D3
  0
BLOCK_RECORD
  5
83
330
1
100
AcDbSymbolTableRecord
100
AcDbBlockTableRecord
  2
*D4
  0
BLOCK_RECORD
  5
242
330
1
100
AcDbSymbolTableRecord
100
AcDbBlockTableRecord
  2
*D5
  0
BLOCK_RECORD
  5
13D
330
1
100
AcDbSymbolTableRecord
100
AcDbBlockTableRecord
  2
*D6
  0
BLOCK_RECORD
  5
22D
330
1
100
AcDbSymbolTableRecord
100
AcDbBlockTableRecord
  2
*D7
  0
BLOCK_RECORD
  5
201
330
1
100
AcDbSymbolTableRecord
100
AcDbBlockTableRecord
  2
*D8
  0
BLOCK_RECORD
  5
5D
330
1
100
AcDbSymbolTableRecord
100
AcDbBlockTableRecord
  2
*D9
  0
BLOCK_RECORD
  5
6A
330
1
100
AcDbSymbolTableRecord
100
AcDbBlockTableRecord
  2
*D10
  0
BLOCK_RECORD
  5
1F4
330
1
100
AcDbSymbolTableRecord
100
AcDbBlockTableRecord
  2
*D11
  0
BLOCK_RECORD
  5
50
330
1
100
AcDbSymbolTableRecord
100
AcDbBlockTableRecord
  2
*D12
  0
BLOCK_RECORD
  5
129
330
1
100
AcDbSymbolTableRecord
100
AcDbBlockTableRecord
  2
*D13
  0
BLOCK_RECORD
  5
1C5
330
1
100
AcDbSymbolTableRecord
100
AcDbBlockTableRecord
  2
*D14
  0
BLOCK_RECORD
  5
157
330
1
100
AcDbSymbolTableRecord
100
AcDbBlockTableRecord
  2
*D15
  0
BLOCK_RECORD
  5
19A
330
1
100
AcDbSymbolTableRecord
100
AcDbBlockTableRecord
  2
*D16
  0
BLOCK_RECORD
  5
18D
330
1
100
AcDbSymbolTableRecord
100
AcDbBlockTableRecord
  2
*D17
  0
BLOCK_RECORD
  5
11C
330
1
100
AcDbSymbolTableRecord
100
AcDbBlockTableRecord
  2
*D18
  0
BLOCK_RECORD
  5
10D
330
1
100
AcDbSymbolTableRecord
100
AcDbBlockTableRecord
  2
*D19
  0
BLOCK_RECORD
  5
100
330
1
100
AcDbSymbolTableRecord
100
AcDbBlockTableRecord
  2
*D20
  0
BLOCK_RECORD
  5
176
330
1
100
AcDbSymbolTableRecord
100
AcDbBlockTableRecord
  2
*D21
  0
BLOCK_RECORD
  5
169
330
1
100
AcDbSymbolTableRecord
100
AcDbBlockTableRecord
  2
*D22
  0
BLOCK_RECORD
  5
F3
330
1
100
AcDbSymbolTableRecord
100
AcDbBlockTableRecord
  2
*D23
  0
BLOCK_RECORD
  5
210
330
1
100
AcDbSymbolTableRecord
100
AcDbBlockTableRecord
  2
*D24
  0
BLOCK_RECORD
  5
E6
330
1
100
AcDbSymbolTableRecord
100
AcDbBlockTableRecord
  2
*D25
  0
BLOCK_RECORD
  5
D9
330
1
100
AcDbSymbolTableRecord
100
AcDbBlockTableRecord
  2
*D26
  0
BLOCK_RECORD
  5
CA
330
1
100
AcDbSymbolTableRecord
100
AcDbBlockTableRecord
  2
*D27
  0
BLOCK_RECORD
  5
BE
330
1
100
AcDbSymbolTableRecord
100
AcDbBlockTableRecord
  2
*D28
  0
BLOCK_RECORD
  5
AF
330
1
100
AcDbSymbolTableRecord
100
AcDbBlockTableRecord
  2
*D29
  0
BLOCK_RECORD
  5
1A9
330
1
100
AcDbSymbolTableRecord
100
AcDbBlockTableRecord
  2
*D30
  0
BLOCK_RECORD
  5
183
330
1
100
AcDbSymbolTableRecord
100
AcDbBlockTableRecord
  2
*D31
  0
BLOCK_RECORD
  5
1BB
330
1
100
AcDbSymbolTableRecord
100
AcDbBlockTableRecord
  2
*D32
  0
BLOCK_RECORD
  5
39
330
1
100
AcDbSymbolTableRecord
100
AcDbBlockTableRecord
  2
*D33
  0
BLOCK_RECORD
  5
2B
330
1
100
AcDbSymbolTableRecord
100
AcDbBlockTableRecord
  2
*D34
  0
BLOCK_RECORD
  5
9E
330
1
100
AcDbSymbolTableRecord
100
AcDbBlockTableRecord
  2
*D35
  0
BLOCK_RECORD
  5
1D5
330
1
100
AcDbSymbolTableRecord
100
AcDbBlockTableRecord
  2
*D36
  0
ENDTAB
  0
ENDSEC
  0
SECTION
  2
BLOCKS
  0
BLOCK
  5
3
330
2
100
AcDbEntity
  8
0
100
AcDbBlockBegin
  2
*MODEL_SPACE
 70
     0
 10
0.0
 20
0.0
 30
0.0
  3
*MODEL_SPACE
  1

  0
ENDBLK
  5
9
330
2
100
AcDbEntity
  8
0
100
AcDbBlockEnd
  0
BLOCK
  5
D
330
C
100
AcDbEntity
 67
     1
  8
0
100
AcDbBlockBegin
  2
*PAPER_SPACE
 70
     0
 10
0.0
 20
0.0
 30
0.0
  3
*PAPER_SPACE
  1

  0
ENDBLK
  5
E
330
C
100
AcDbEntity
 67
     1
  8
0
100
AcDbBlockEnd
  0
BLOCK
  5
23
330
1F
100
AcDbEntity
  8
0
100
AcDbBlockBegin
  2
_OPEN
 70
     0
 10
0.0
 20
0.0
 30
0.0
  3
_OPEN
  1

  0
LINE
  5
20
330
1F
100
AcDbEntity
  8
0
  6
BYBLOCK
 62
     0
100
AcDbLine
 10
-1.0
 20
0.1666666666666666
 30
0.0
 11
0.0
 21
0.0
 31
0.0
  0
LINE
  5
21
330
1F
100
AcDbEntity
  8
0
  6
BYBLOCK
 62
     0
100
AcDbLine
 10
0.0
 20
0.0
 30
0.0
 11
-1.0
 21
-0.1666666666666666
 31
0.0
  0
LINE
  5
22
330
1F
100
AcDbEntity
  8
0
  6
BYBLOCK
 62
     0
100
AcDbLine
 10
0.0
 20
0.0
 30
0.0
 11
-1.0
 21
0.0
 31
0.0
  0
ENDBLK
  5
24
330
1F
100
AcDbEntity
  8
0
100
AcDbBlockEnd
  0
BLOCK
  5
9A
330
90
100
AcDbEntity
  8
0
100
AcDbBlockBegin
  2
*D1
 70
     1
 10
0.0
 20
0.0
 30
0.0
  3
*D1
  1

  0
LINE
  5
91
330
90
100
AcDbEntity
  8
0
 62
     0
100
AcDbLine
 10
4024.227547125868
 20
2684.594656162318
 30
0.0
 11
4024.227547125868
 21
2387.988500555133
 31
0.0
  0
LINE
  5
92
330
90
100
AcDbEntity
  8
0
 62
     0
100
AcDbLine
 10
3714.227547125862
 20
2664.594656162315
 30
0.0
 11
3714.227547125862
 21
2387.988500555133
 31
0.0
  0
LINE
  5
93
330
90
100
AcDbEntity
  8
0
 62
     0
100
AcDbLine
 10
4014.227547125869
 20
2387.988500555133
 30
0.0
 11
3724.227547125861
 21
2387.988500555133
 31
0.0
  0
INSERT
  5
94
330
90
100
AcDbEntity
  8
0
 62
     0
100
AcDbBlockReference
  2
_OPEN
 10
4024.227547125868
 20
2387.988500555133
 30
0.0
 41
10.0
 42
10.0
 43
10.0
  0
INSERT
  5
95
330
90
100
AcDbEntity
  8
0
 62
     0
100
AcDbBlockReference
  2
_OPEN
 10
3714.227547125862
 20
2387.988500555133
 30
0.0
 41
10.0
 42
10.0
 43
10.0
 50
180.0
  0
MTEXT
  5
96
330
90
100
AcDbEntity
  8
0
 62
     0
100
AcDbMText
 10
3843.391932551655
 20
2402.988500555133
 30
0.0
 40
10.0
 41
0.0
 71
     5
 72
     1
  1
\A1;310.0
1001
ACAD
1000
MTEXTBEGIN
1070
    73
1070
     1
1070
    44
1040
1.0
1070
    74
1070
     0
1000
MTEXTEND
  0
POINT
  5
97
330
90
100
AcDbEntity
  8
DEFPOINTS
 62
     0
100
AcDbPoint
 10
4024.227547125868
 20
2684.594656162318
 30
0.0
  0
POINT
  5
98
330
90
100
AcDbEntity
  8
DEFPOINTS
 62
     0
100
AcDbPoint
 10
3714.227547125862
 20
2664.594656162315
 30
0.0
  0
POINT
  5
99
330
90
100
AcDbEntity
  8
DEFPOINTS
 62
     0
100
AcDbPoint
 10
3714.227547125862
 20
2387.988500555133
 30
0.0
  0
ENDBLK
  5
9B
330
90
100
AcDbEntity
  8
0
100
AcDbBlockEnd
  0
BLOCK
  5
152
330
148
100
AcDbEntity
  8
0
100
AcDbBlockBegin
  2
*D2
 70
     1
 10
0.0
 20
0.0
 30
0.0
  3
*D2
  1

  0
LINE
  5
149
330
148
100
AcDbEntity
  8
0
 62
     0
100
AcDbLine
 10
3864.227547125861
 20
2514.594656162315
 30
0.0
 11
3598.960278306265
 21
2514.594656162315
 31
0.0
  0
LINE
  5
14A
330
148
100
AcDbEntity
  8
0
 62
     0
100
AcDbLine
 10
3864.227547125862
 20
2814.594656162314
 30
0.0
 11
3598.960278306265
 21
2814.594656162314
 31
0.0
  0
LINE
  5
14B
330
148
100
AcDbEntity
  8
0
 62
     0
100
AcDbLine
 10
3598.960278306265
 20
2524.594656162316
 30
0.0
 11
3598.960278306265
 21
2804.594656162315
 31
0.0
  0
INSERT
  5
14C
330
148
100
AcDbEntity
  8
0
 62
     0
100
AcDbBlockReference
  2
_OPEN
 10
3598.960278306265
 20
2514.594656162315
 30
0.0
 41
10.0
 42
10.0
 43
10.0
 50
270.0
  0
INSERT
  5
14D
330
148
100
AcDbEntity
  8
0
 62
     0
100
AcDbBlockReference
  2
_OPEN
 10
3598.960278306265
 20
2814.594656162314
 30
0.0
 41
10.0
 42
10.0
 43
10.0
 50
90.0
  0
MTEXT
  5
14E
330
148
100
AcDbEntity
  8
0
 62
     0
100
AcDbMText
 10
3583.960278306265
 20
2664.594656162316
 30
0.0
 40
10.0
 41
0.0
 71
     5
 72
     1
  1
\A1;300.0
 11
0.0000000000000001
 21
1.0
 31
0.0
1001
ACAD
1000
MTEXTBEGIN
1070
    73
1070
     1
1070
    44
1040
1.0
1070
    74
1070
     0
1000
MTEXTEND
  0
POINT
  5
14F
330
148
100
AcDbEntity
  8
DEFPOINTS
 62
     0
100
AcDbPoint
 10
3864.227547125861
 20
2514.594656162315
 30
0.0
  0
POINT
  5
150
330
148
100
AcDbEntity
  8
DEFPOINTS
 62
     0
100
AcDbPoint
 10
3864.227547125862
 20
2814.594656162314
 30
0.0
  0
POINT
  5
151
330
148
100
AcDbEntity
  8
DEFPOINTS
 62
     0
100
AcDbPoint
 10
3598.960278306265
 20
2814.594656162314
 30
0.0
  0
ENDBLK
  5
153
330
148
100
AcDbEntity
  8
0
100
AcDbBlockEnd
  0
BLOCK
  5
80
330
77
100
AcDbEntity
  8
0
100
AcDbBlockBegin
  2
*D3
 70
     1
 10
0.0
 20
0.0
 30
0.0
  3
*D3
  1

  0
LINE
  5
78
330
77
100
AcDbEntity
  8
0
 62
     0
100
AcDbLine
 10
3934.227547125861
 20
2724.594656162313
 30
0.0
 11
3934.227547125861
 21
2820.101780830351
 31
0.0
  0
LINE
  5
79
330
77
100
AcDbEntity
  8
0
 62
     0
100
AcDbLine
 10
3944.227547125862
 20
2820.101780830351
 30
0.0
 11
4014.227547125862
 21
2820.101780830351
 31
0.0
  0
INSERT
  5
7A
330
77
100
AcDbEntity
  8
0
 62
     0
100
AcDbBlockReference
  2
_OPEN
 10
3934.227547125861
 20
2820.101780830351
 30
0.0
 41
10.0
 42
10.0
 43
10.0
 50
180.0
  0
INSERT
  5
7B
330
77
100
AcDbEntity
  8
0
 62
     0
100
AcDbBlockReference
  2
_OPEN
 10
4024.227547125863
 20
2820.101780830351
 30
0.0
 41
10.0
 42
10.0
 43
10.0
  0
MTEXT
  5
7C
330
77
100
AcDbEntity
  8
0
 62
     0
100
AcDbMText
 10
3979.227547125862
 20
2835.101780830351
 30
0.0
 40
10.0
 41
0.0
 71
     5
 72
     1
  1
\A1;90.0
1001
ACAD
1000
MTEXTBEGIN
1070
    73
1070
     1
1070
    44
1040
1.0
1070
    74
1070
     0
1000
MTEXTEND
  0
POINT
  5
7D
330
77
100
AcDbEntity
  8
DEFPOINTS
 62
     0
100
AcDbPoint
 10
3934.227547125861
 20
2724.594656162313
 30
0.0
  0
POINT
  5
7E
330
77
100
AcDbEntity
  8
DEFPOINTS
 62
     0
100
AcDbPoint
 10
4024.227547125863
 20
2820.101780830351
 30
0.0
  0
POINT
  5
7F
330
77
100
AcDbEntity
  8
DEFPOINTS
 62
     0
100
AcDbPoint
 10
4024.227547125863
 20
2820.101780830351
 30
0.0
  0
ENDBLK
  5
81
330
77
100
AcDbEntity
  8
0
100
AcDbBlockEnd
  0
BLOCK
  5
8C
330
83
100
AcDbEntity
  8
0
100
AcDbBlockBegin
  2
*D4
 70
     1
 10
0.0
 20
0.0
 30
0.0
  3
*D4
  1

  0
LINE
  5
84
330
83
100
AcDbEntity
  8
0
 62
     0
100
AcDbLine
 10
3944.227547125862
 20
2734.594656162313
 30
0.0
 11
3944.227547125862
 21
2752.626553457124
 31
0.0
  0
LINE
  5
85
330
83
100
AcDbEntity
  8
0
 62
     0
100
AcDbLine
 10
3954.227547125862
 20
2752.626553457124
 30
0.0
 11
4014.227547125869
 21
2752.626553457124
 31
0.0
  0
INSERT
  5
86
330
83
100
AcDbEntity
  8
0
 62
     0
100
AcDbBlockReference
  2
_OPEN
 10
3944.227547125862
 20
2752.626553457124
 30
0.0
 41
10.0
 42
10.0
 43
10.0
 50
180.0
  0
INSERT
  5
87
330
83
100
AcDbEntity
  8
0
 62
     0
100
AcDbBlockReference
  2
_OPEN
 10
4024.227547125867
 20
2752.626553457124
 30
0.0
 41
10.0
 42
10.0
 43
10.0
  0
MTEXT
  5
88
330
83
100
AcDbEntity
  8
0
 62
     0
100
AcDbMText
 10
3984.227547125865
 20
2767.626553457125
 30
0.0
 40
10.0
 41
0.0
 71
     5
 72
     1
  1
\A1;80.0
1001
ACAD
1000
MTEXTBEGIN
1070
    73
1070
     1
1070
    44
1040
1.0
1070
    74
1070
     0
1000
MTEXTEND
  0
POINT
  5
89
330
83
100
AcDbEntity
  8
DEFPOINTS
 62
     0
100
AcDbPoint
 10
3944.227547125862
 20
2734.594656162313
 30
0.0
  0
POINT
  5
8A
330
83
100
AcDbEntity
  8
DEFPOINTS
 62
     0
100
AcDbPoint
 10
4024.227547125867
 20
2752.626553457124
 30
0.0
  0
POINT
  5
8B
330
83
100
AcDbEntity
  8
DEFPOINTS
 62
     0
100
AcDbPoint
 10
4024.227547125867
 20
2752.626553457124
 30
0.0
  0
ENDBLK
  5
8D
330
83
100
AcDbEntity
  8
0
100
AcDbBlockEnd
  0
BLOCK
  5
24A
330
242
100
AcDbEntity
  8
0
100
AcDbBlockBegin
  2
*D5
 70
     1
 10
0.0
 20
0.0
 30
0.0
  3
*D5
  1

  0
LINE
  5
243
330
242
100
AcDbEntity
  8
0
 62
     0
100
AcDbLine
 10
4144.083656858896
 20
2724.594656162315
 30
0.0
 11
4144.083656858896
 21
2524.594656162316
 31
0.0
  0
INSERT
  5
244
330
242
100
AcDbEntity
  8
0
 62
     0
100
AcDbBlockReference
  2
_OPEN
 10
4144.083656858896
 20
2734.594656162315
 30
0.0
 41
10.0
 42
10.0
 43
10.0
 50
90.0
  0
INSERT
  5
245
330
242
100
AcDbEntity
  8
0
 62
     0
100
AcDbBlockReference
  2
_OPEN
 10
4144.083656858896
 20
2514.594656162316
 30
0.0
 41
10.0
 42
10.0
 43
10.0
 50
270.0
  0
MTEXT
  5
246
330
242
100
AcDbEntity
  8
0
 62
     0
100
AcDbMText
 10
4129.083656858895
 20
2624.594656162316
 30
0.0
 40
10.0
 41
0.0
 71
     5
 72
     1
  1
\A1;(220.0)
 11
0.0000000000000001
 21
1.0
 31
0.0
1001
ACAD
1000
MTEXTBEGIN
1070
    73
1070
     1
1070
    44
1040
1.0
1070
    74
1070
     0
1000
MTEXTEND
  0
POINT
  5
247
330
242
100
AcDbEntity
  8
DEFPOINTS
 62
     0
100
AcDbPoint
 10
4144.083656858896
 20
2734.594656162315
 30
0.0
  0
POINT
  5
248
330
242
100
AcDbEntity
  8
DEFPOINTS
 62
     0
100
AcDbPoint
 10
4144.083656858896
 20
2514.594656162316
 30
0.0
  0
POINT
  5
249
330
242
100
AcDbEntity
  8
DEFPOINTS
 62
     0
100
AcDbPoint
 10
4144.083656858896
 20
2514.594656162316
 30
0.0
  0
ENDBLK
  5
24B
330
242
100
AcDbEntity
  8
0
100
AcDbBlockEnd
  0
BLOCK
  5
145
330
13D
100
AcDbEntity
  8
0
100
AcDbBlockBegin
  2
*D6
 70
     1
 10
0.0
 20
0.0
 30
0.0
  3
*D6
  1

  0
LINE
  5
13E
330
13D
100
AcDbEntity
  8
0
 62
     0
100
AcDbLine
 10
3531.285945802403
 20
2724.594656162315
 30
0.0
 11
3531.285945802403
 21
2524.594656162315
 31
0.0
  0
INSERT
  5
13F
330
13D
100
AcDbEntity
  8
0
 62
     0
100
AcDbBlockReference
  2
_OPEN
 10
3531.285945802403
 20
2734.594656162315
 30
0.0
 41
10.0
 42
10.0
 43
10.0
 50
90.0
  0
INSERT
  5
140
330
13D
100
AcDbEntity
  8
0
 62
     0
100
AcDbBlockReference
  2
_OPEN
 10
3531.285945802403
 20
2514.594656162315
 30
0.0
 41
10.0
 42
10.0
 43
10.0
 50
270.0
  0
MTEXT
  5
141
330
13D
100
AcDbEntity
  8
0
 62
     0
100
AcDbMText
 10
3516.285945802403
 20
2624.594656162316
 30
0.0
 40
10.0
 41
0.0
 71
     5
 72
     1
  1
\A1;(220.0)
 11
0.0000000000000001
 21
1.0
 31
0.0
1001
ACAD
1000
MTEXTBEGIN
1070
    73
1070
     1
1070
    44
1040
1.0
1070
    74
1070
     0
1000
MTEXTEND
  0
POINT
  5
142
330
13D
100
AcDbEntity
  8
DEFPOINTS
 62
     0
100
AcDbPoint
 10
3531.285945802403
 20
2734.594656162315
 30
0.0
  0
POINT
  5
143
330
13D
100
AcDbEntity
  8
DEFPOINTS
 62
     0
100
AcDbPoint
 10
3531.285945802403
 20
2514.594656162315
 30
0.0
  0
POINT
  5
144
330
13D
100
AcDbEntity
  8
DEFPOINTS
 62
     0
100
AcDbPoint
 10
3531.285945802403
 20
2514.594656162315
 30
0.0
  0
ENDBLK
  5
146
330
13D
100
AcDbEntity
  8
0
100
AcDbBlockEnd
  0
BLOCK
  5
237
330
22D
100
AcDbEntity
  8
0
100
AcDbBlockBegin
  2
*D7
 70
     1
 10
0.0
 20
0.0
 30
0.0
  3
*D7
  1

  0
LINE
  5
22E
330
22D
100
AcDbEntity
  8
0
 62
     0
100
AcDbLine
 10
3411.42983606936
 20
2974.594656162315
 30
0.0
 11
3411.42983606936
 21
2996.670624873711
 31
0.0
  0
LINE
  5
22F
330
22D
100
AcDbEntity
  8
0
 62
     0
100
AcDbLine
 10
3341.429836069368
 20
2974.594656162315
 30
0.0
 11
3341.429836069368
 21
2996.670624873711
 31
0.0
  0
LINE
  5
230
330
22D
100
AcDbEntity
  8
0
 62
     0
100
AcDbLine
 10
3401.42983606936
 20
2996.670624873711
 30
0.0
 11
3351.429836069367
 21
2996.670624873711
 31
0.0
  0
INSERT
  5
231
330
22D
100
AcDbEntity
  8
0
 62
     0
100
AcDbBlockReference
  2
_OPEN
 10
3411.42983606936
 20
2996.670624873711
 30
0.0
 41
10.0
 42
10.0
 43
10.0
  0
INSERT
  5
232
330
22D
100
AcDbEntity
  8
0
 62
     0
100
AcDbBlockReference
  2
_OPEN
 10
3341.429836069368
 20
2996.670624873711
 30
0.0
 41
10.0
 42
10.0
 43
10.0
 50
180.0
  0
MTEXT
  5
233
330
22D
100
AcDbEntity
  8
0
 62
     0
100
AcDbMText
 10
3376.429836069363
 20
3011.670624873712
 30
0.0
 40
10.0
 41
0.0
 71
     5
 72
     1
  1
\A1;70.0
1001
ACAD
1000
MTEXTBEGIN
1070
    73
1070
     1
1070
    44
1040
1.0
1070
    74
1070
     0
1000
MTEXTEND
  0
POINT
  5
234
330
22D
100
AcDbEntity
  8
DEFPOINTS
 62
     0
100
AcDbPoint
 10
3411.42983606936
 20
2974.594656162315
 30
0.0
  0
POINT
  5
235
330
22D
100
AcDbEntity
  8
DEFPOINTS
 62
     0
100
AcDbPoint
 10
3341.429836069368
 20
2974.594656162315
 30
0.0
  0
POINT
  5
236
330
22D
100
AcDbEntity
  8
DEFPOINTS
 62
     0
100
AcDbPoint
 10
3341.429836069368
 20
2996.670624873711
 30
0.0
  0
ENDBLK
  5
238
330
22D
100
AcDbEntity
  8
0
100
AcDbBlockEnd
  0
BLOCK
  5
20B
330
201
100
AcDbEntity
  8
0
100
AcDbBlockBegin
  2
*D8
 70
     1
 10
0.0
 20
0.0
 30
0.0
  3
*D8
  1

  0
LINE
  5
202
330
201
100
AcDbEntity
  8
0
 62
     0
100
AcDbLine
 10
3411.42983606936
 20
2974.594656162315
 30
0.0
 11
3411.42983606936
 21
3030.998560502919
 31
0.0
  0
LINE
  5
203
330
201
100
AcDbEntity
  8
0
 62
     0
100
AcDbLine
 10
3311.429836069368
 20
2974.594656162315
 30
0.0
 11
3311.429836069368
 21
3030.998560502919
 31
0.0
  0
LINE
  5
204
330
201
100
AcDbEntity
  8
0
 62
     0
100
AcDbLine
 10
3401.42983606936
 20
3030.998560502919
 30
0.0
 11
3321.429836069369
 21
3030.998560502919
 31
0.0
  0
INSERT
  5
205
330
201
100
AcDbEntity
  8
0
 62
     0
100
AcDbBlockReference
  2
_OPEN
 10
3411.42983606936
 20
3030.998560502919
 30
0.0
 41
10.0
 42
10.0
 43
10.0
  0
INSERT
  5
206
330
201
100
AcDbEntity
  8
0
 62
     0
100
AcDbBlockReference
  2
_OPEN
 10
3311.429836069368
 20
3030.998560502919
 30
0.0
 41
10.0
 42
10.0
 43
10.0
 50
180.0
  0
MTEXT
  5
207
330
201
100
AcDbEntity
  8
0
 62
     0
100
AcDbMText
 10
3361.429836069364
 20
3045.998560502919
 30
0.0
 40
10.0
 41
0.0
 71
     5
 72
     1
  1
\A1;100.0
1001
ACAD
1000
MTEXTBEGIN
1070
    73
1070
     1
1070
    44
1040
1.0
1070
    74
1070
     0
1000
MTEXTEND
  0
POINT
  5
208
330
201
100
AcDbEntity
  8
DEFPOINTS
 62
     0
100
AcDbPoint
 10
3411.42983606936
 20
2974.594656162315
 30
0.0
  0
POINT
  5
209
330
201
100
AcDbEntity
  8
DEFPOINTS
 62
     0
100
AcDbPoint
 10
3311.429836069368
 20
2974.594656162315
 30
0.0
  0
POINT
  5
20A
330
201
100
AcDbEntity
  8
DEFPOINTS
 62
     0
100
AcDbPoint
 10
3311.429836069368
 20
3030.998560502919
 30
0.0
  0
ENDBLK
  5
20C
330
201
100
AcDbEntity
  8
0
100
AcDbBlockEnd
  0
BLOCK
  5
67
330
5D
100
AcDbEntity
  8
0
100
AcDbBlockBegin
  2
*D9
 70
     1
 10
0.0
 20
0.0
 30
0.0
  3
*D9
  1

  0
LINE
  5
5E
330
5D
100
AcDbEntity
  8
0
 62
     0
100
AcDbLine
 10
4024.227547125861
 20
2974.594656162315
 30
0.0
 11
4024.227547125861
 21
2996.670624873711
 31
0.0
  0
LINE
  5
5F
330
5D
100
AcDbEntity
  8
0
 62
     0
100
AcDbLine
 10
3954.227547125861
 20
2974.594656162315
 30
0.0
 11
3954.227547125861
 21
2996.670624873711
 31
0.0
  0
LINE
  5
60
330
5D
100
AcDbEntity
  8
0
 62
     0
100
AcDbLine
 10
4014.227547125861
 20
2996.670624873711
 30
0.0
 11
3964.227547125861
 21
2996.670624873711
 31
0.0
  0
INSERT
  5
61
330
5D
100
AcDbEntity
  8
0
 62
     0
100
AcDbBlockReference
  2
_OPEN
 10
4024.227547125861
 20
2996.670624873711
 30
0.0
 41
10.0
 42
10.0
 43
10.0
  0
INSERT
  5
62
330
5D
100
AcDbEntity
  8
0
 62
     0
100
AcDbBlockReference
  2
_OPEN
 10
3954.227547125861
 20
2996.670624873711
 30
0.0
 41
10.0
 42
10.0
 43
10.0
 50
180.0
  0
MTEXT
  5
63
330
5D
100
AcDbEntity
  8
0
 62
     0
100
AcDbMText
 10
3989.227547125861
 20
3011.670624873712
 30
0.0
 40
10.0
 41
0.0
 71
     5
 72
     1
  1
\A1;70.0
1001
ACAD
1000
MTEXTBEGIN
1070
    73
1070
     1
1070
    44
1040
1.0
1070
    74
1070
     0
1000
MTEXTEND
  0
POINT
  5
64
330
5D
100
AcDbEntity
  8
DEFPOINTS
 62
     0
100
AcDbPoint
 10
4024.227547125861
 20
2974.594656162315
 30
0.0
  0
POINT
  5
65
330
5D
100
AcDbEntity
  8
DEFPOINTS
 62
     0
100
AcDbPoint
 10
3954.227547125861
 20
2974.594656162315
 30
0.0
  0
POINT
  5
66
330
5D
100
AcDbEntity
  8
DEFPOINTS
 62
     0
100
AcDbPoint
 10
3954.227547125861
 20
2996.670624873711
 30
0.0
  0
ENDBLK
  5
68
330
5D
100
AcDbEntity
  8
0
100
AcDbBlockEnd
  0
BLOCK
  5
74
330
6A
100
AcDbEntity
  8
0
100
AcDbBlockBegin
  2
*D10
 70
     1
 10
0.0
 20
0.0
 30
0.0
  3
*D10
  1

  0
LINE
  5
6B
330
6A
100
AcDbEntity
  8
0
 62
     0
100
AcDbLine
 10
4024.227547125861
 20
2974.594656162315
 30
0.0
 11
4024.227547125861
 21
3030.998560502919
 31
0.0
  0
LINE
  5
6C
330
6A
100
AcDbEntity
  8
0
 62
     0
100
AcDbLine
 10
3924.227547125862
 20
2974.594656162315
 30
0.0
 11
3924.227547125862
 21
3030.998560502919
 31
0.0
  0
LINE
  5
6D
330
6A
100
AcDbEntity
  8
0
 62
     0
100
AcDbLine
 10
4014.227547125861
 20
3030.998560502919
 30
0.0
 11
3934.227547125862
 21
3030.998560502919
 31
0.0
  0
INSERT
  5
6E
330
6A
100
AcDbEntity
  8
0
 62
     0
100
AcDbBlockReference
  2
_OPEN
 10
4024.227547125861
 20
3030.998560502919
 30
0.0
 41
10.0
 42
10.0
 43
10.0
  0
INSERT
  5
6F
330
6A
100
AcDbEntity
  8
0
 62
     0
100
AcDbBlockReference
  2
_OPEN
 10
3924.227547125862
 20
3030.998560502919
 30
0.0
 41
10.0
 42
10.0
 43
10.0
 50
180.0
  0
MTEXT
  5
70
330
6A
100
AcDbEntity
  8
0
 62
     0
100
AcDbMText
 10
3974.227547125861
 20
3045.998560502919
 30
0.0
 40
10.0
 41
0.0
 71
     5
 72
     1
  1
\A1;100.0
1001
ACAD
1000
MTEXTBEGIN
1070
    73
1070
     1
1070
    44
1040
1.0
1070
    74
1070
     0
1000
MTEXTEND
  0
POINT
  5
71
330
6A
100
AcDbEntity
  8
DEFPOINTS
 62
     0
100
AcDbPoint
 10
4024.227547125861
 20
2974.594656162315
 30
0.0
  0
POINT
  5
72
330
6A
100
AcDbEntity
  8
DEFPOINTS
 62
     0
100
AcDbPoint
 10
3924.227547125862
 20
2974.594656162315
 30
0.0
  0
POINT
  5
73
330
6A
100
AcDbEntity
  8
DEFPOINTS
 62
     0
100
AcDbPoint
 10
3924.227547125862
 20
3030.998560502919
 30
0.0
  0
ENDBLK
  5
75
330
6A
100
AcDbEntity
  8
0
100
AcDbBlockEnd
  0
BLOCK
  5
1FE
330
1F4
100
AcDbEntity
  8
0
100
AcDbBlockBegin
  2
*D11
 70
     1
 10
0.0
 20
0.0
 30
0.0
  3
*D11
  1

  0
LINE
  5
1F5
330
1F4
100
AcDbEntity
  8
0
 62
     0
100
AcDbLine
 10
3101.429836069368
 20
3062.44624616614
 30
0.0
 11
3101.429836069368
 21
3077.350703737876
 31
0.0
  0
LINE
  5
1F6
330
1F4
100
AcDbEntity
  8
0
 62
     0
100
AcDbLine
 10
3411.429836069359
 20
3062.446246166141
 30
0.0
 11
3411.429836069359
 21
3077.350703737876
 31
0.0
  0
LINE
  5
1F7
330
1F4
100
AcDbEntity
  8
0
 62
     0
100
AcDbLine
 10
3111.429836069368
 20
3077.350703737876
 30
0.0
 11
3401.429836069359
 21
3077.350703737876
 31
0.0
  0
INSERT
  5
1F8
330
1F4
100
AcDbEntity
  8
0
 62
     0
100
AcDbBlockReference
  2
_OPEN
 10
3101.429836069368
 20
3077.350703737876
 30
0.0
 41
10.0
 42
10.0
 43
10.0
 50
180.0
  0
INSERT
  5
1F9
330
1F4
100
AcDbEntity
  8
0
 62
     0
100
AcDbBlockReference
  2
_OPEN
 10
3411.429836069359
 20
3077.350703737876
 30
0.0
 41
10.0
 42
10.0
 43
10.0
  0
MTEXT
  5
1FA
330
1F4
100
AcDbEntity
  8
0
 62
     0
100
AcDbMText
 10
3256.429836069364
 20
3092.350703737877
 30
0.0
 40
10.0
 41
0.0
 71
     5
 72
     1
  1
\A1;310.0
1001
ACAD
1000
MTEXTBEGIN
1070
    73
1070
     1
1070
    44
1040
1.0
1070
    74
1070
     0
1000
MTEXTEND
  0
POINT
  5
1FB
330
1F4
100
AcDbEntity
  8
DEFPOINTS
 62
     0
100
AcDbPoint
 10
3101.429836069368
 20
3062.44624616614
 30
0.0
  0
POINT
  5
1FC
330
1F4
100
AcDbEntity
  8
DEFPOINTS
 62
     0
100
AcDbPoint
 10
3411.429836069359
 20
3062.446246166141
 30
0.0
  0
POINT
  5
1FD
330
1F4
100
AcDbEntity
  8
DEFPOINTS
 62
     0
100
AcDbPoint
 10
3411.429836069359
 20
3077.350703737876
 30
0.0
  0
ENDBLK
  5
1FF
330
1F4
100
AcDbEntity
  8
0
100
AcDbBlockEnd
  0
BLOCK
  5
5A
330
50
100
AcDbEntity
  8
0
100
AcDbBlockBegin
  2
*D12
 70
     1
 10
0.0
 20
0.0
 30
0.0
  3
*D12
  1

  0
LINE
  5
51
330
50
100
AcDbEntity
  8
0
 62
     0
100
AcDbLine
 10
3714.227547125862
 20
3062.44624616614
 30
0.0
 11
3714.227547125862
 21
3077.350703737876
 31
0.0
  0
LINE
  5
52
330
50
100
AcDbEntity
  8
0
 62
     0
100
AcDbLine
 10
4024.227547125861
 20
3062.44624616614
 30
0.0
 11
4024.227547125861
 21
3077.350703737876
 31
0.0
  0
LINE
  5
53
330
50
100
AcDbEntity
  8
0
 62
     0
100
AcDbLine
 10
3724.227547125861
 20
3077.350703737876
 30
0.0
 11
4014.227547125861
 21
3077.350703737876
 31
0.0
  0
INSERT
  5
54
330
50
100
AcDbEntity
  8
0
 62
     0
100
AcDbBlockReference
  2
_OPEN
 10
3714.227547125862
 20
3077.350703737876
 30
0.0
 41
10.0
 42
10.0
 43
10.0
 50
180.0
  0
INSERT
  5
55
330
50
100
AcDbEntity
  8
0
 62
     0
100
AcDbBlockReference
  2
_OPEN
 10
4024.227547125861
 20
3077.350703737876
 30
0.0
 41
10.0
 42
10.0
 43
10.0
  0
MTEXT
  5
56
330
50
100
AcDbEntity
  8
0
 62
     0
100
AcDbMText
 10
3869.227547125861
 20
3092.350703737877
 30
0.0
 40
10.0
 41
0.0
 71
     5
 72
     1
  1
\A1;310.0
1001
ACAD
1000
MTEXTBEGIN
1070
    73
1070
     1
1070
    44
1040
1.0
1070
    74
1070
     0
1000
MTEXTEND
  0
POINT
  5
57
330
50
100
AcDbEntity
  8
DEFPOINTS
 62
     0
100
AcDbPoint
 10
3714.227547125862
 20
3062.44624616614
 30
0.0
  0
POINT
  5
58
330
50
100
AcDbEntity
  8
DEFPOINTS
 62
     0
100
AcDbPoint
 10
4024.227547125861
 20
3062.44624616614
 30
0.0
  0
POINT
  5
59
330
50
100
AcDbEntity
  8
DEFPOINTS
 62
     0
100
AcDbPoint
 10
4024.227547125861
 20
3077.350703737876
 30
0.0
  0
ENDBLK
  5
5B
330
50
100
AcDbEntity
  8
0
100
AcDbBlockEnd
  0
BLOCK
  5
133
330
129
100
AcDbEntity
  8
0
100
AcDbBlockBegin
  2
*D13
 70
     1
 10
0.0
 20
0.0
 30
0.0
  3
*D13
  1

  0
LINE
  5
12A
330
129
100
AcDbEntity
  8
0
 62
     0
100
AcDbLine
 10
3411.429836069366
 20
2734.594656162315
 30
0.0
 11
3411.429836069366
 21
2387.988500555133
 31
0.0
  0
LINE
  5
12B
330
129
100
AcDbEntity
  8
0
 62
     0
100
AcDbLine
 10
3101.429836069368
 20
2664.594656162315
 30
0.0
 11
3101.429836069368
 21
2387.988500555133
 31
0.0
  0
LINE
  5
12C
330
129
100
AcDbEntity
  8
0
 62
     0
100
AcDbLine
 10
3401.429836069367
 20
2387.988500555133
 30
0.0
 11
3111.429836069368
 21
2387.988500555133
 31
0.0
  0
INSERT
  5
12D
330
129
100
AcDbEntity
  8
0
 62
     0
100
AcDbBlockReference
  2
_OPEN
 10
3411.429836069366
 20
2387.988500555133
 30
0.0
 41
10.0
 42
10.0
 43
10.0
  0
INSERT
  5
12E
330
129
100
AcDbEntity
  8
0
 62
     0
100
AcDbBlockReference
  2
_OPEN
 10
3101.429836069368
 20
2387.988500555133
 30
0.0
 41
10.0
 42
10.0
 43
10.0
 50
180.0
  0
MTEXT
  5
12F
330
129
100
AcDbEntity
  8
0
 62
     0
100
AcDbMText
 10
3256.429836069367
 20
2402.988500555133
 30
0.0
 40
10.0
 41
0.0
 71
     5
 72
     1
  1
\A1;310.0
1001
ACAD
1000
MTEXTBEGIN
1070
    73
1070
     1
1070
    44
1040
1.0
1070
    74
1070
     0
1000
MTEXTEND
  0
POINT
  5
130
330
129
100
AcDbEntity
  8
DEFPOINTS
 62
     0
100
AcDbPoint
 10
3411.429836069366
 20
2734.594656162315
 30
0.0
  0
POINT
  5
131
330
129
100
AcDbEntity
  8
DEFPOINTS
 62
     0
100
AcDbPoint
 10
3101.429836069368
 20
2664.594656162315
 30
0.0
  0
POINT
  5
132
330
129
100
AcDbEntity
  8
DEFPOINTS
 62
     0
100
AcDbPoint
 10
3101.429836069368
 20
2387.988500555133
 30
0.0
  0
ENDBLK
  5
134
330
129
100
AcDbEntity
  8
0
100
AcDbBlockEnd
  0
BLOCK
  5
1CF
330
1C5
100
AcDbEntity
  8
0
100
AcDbBlockBegin
  2
*D14
 70
     1
 10
0.0
 20
0.0
 30
0.0
  3
*D14
  1

  0
LINE
  5
1C6
330
1C5
100
AcDbEntity
  8
0
 62
     0
100
AcDbLine
 10
3411.429836069366
 20
2684.594656162315
 30
0.0
 11
3411.429836069366
 21
2427.720557830089
 31
0.0
  0
LINE
  5
1C7
330
1C5
100
AcDbEntity
  8
0
 62
     0
100
AcDbLine
 10
3351.429836069366
 20
2580.671607708184
 30
0.0
 11
3351.429836069366
 21
2427.720557830089
 31
0.0
  0
LINE
  5
1C8
330
1C5
100
AcDbEntity
  8
0
 62
     0
100
AcDbLine
 10
3401.429836069366
 20
2427.720557830089
 30
0.0
 11
3361.429836069366
 21
2427.720557830089
 31
0.0
  0
INSERT
  5
1C9
330
1C5
100
AcDbEntity
  8
0
 62
     0
100
AcDbBlockReference
  2
_OPEN
 10
3411.429836069366
 20
2427.720557830089
 30
0.0
 41
10.0
 42
10.0
 43
10.0
  0
INSERT
  5
1CA
330
1C5
100
AcDbEntity
  8
0
 62
     0
100
AcDbBlockReference
  2
_OPEN
 10
3351.429836069366
 20
2427.720557830089
 30
0.0
 41
10.0
 42
10.0
 43
10.0
 50
180.0
  0
MTEXT
  5
1CB
330
1C5
100
AcDbEntity
  8
0
 62
     0
100
AcDbMText
 10
3381.429836069366
 20
2442.720557830089
 30
0.0
 40
10.0
 41
0.0
 71
     5
 72
     1
  1
\A1;60.0
1001
ACAD
1000
MTEXTBEGIN
1070
    73
1070
     1
1070
    44
1040
1.0
1070
    74
1070
     0
1000
MTEXTEND
  0
POINT
  5
1CC
330
1C5
100
AcDbEntity
  8
DEFPOINTS
 62
     0
100
AcDbPoint
 10
3411.429836069366
 20
2684.594656162315
 30
0.0
  0
POINT
  5
1CD
330
1C5
100
AcDbEntity
  8
DEFPOINTS
 62
     0
100
AcDbPoint
 10
3351.429836069366
 20
2580.671607708184
 30
0.0
  0
POINT
  5
1CE
330
1C5
100
AcDbEntity
  8
DEFPOINTS
 62
     0
100
AcDbPoint
 10
3351.429836069366
 20
2427.720557830089
 30
0.0
  0
ENDBLK
  5
1D0
330
1C5
100
AcDbEntity
  8
0
100
AcDbBlockEnd
  0
BLOCK
  5
161
330
157
100
AcDbEntity
  8
0
100
AcDbBlockBegin
  2
*D15
 70
     1
 10
0.0
 20
0.0
 30
0.0
  3
*D15
  1

  0
LINE
  5
158
330
157
100
AcDbEntity
  8
0
 62
     0
100
AcDbLine
 10
3351.429836069366
 20
2580.671607708184
 30
0.0
 11
3351.429836069366
 21
2427.720557830089
 31
0.0
  0
LINE
  5
159
330
157
100
AcDbEntity
  8
0
 62
     0
100
AcDbLine
 10
3231.429836069362
 20
2580.671607708183
 30
0.0
 11
3231.429836069362
 21
2427.720557830089
 31
0.0
  0
LINE
  5
15A
330
157
100
AcDbEntity
  8
0
 62
     0
100
AcDbLine
 10
3341.429836069366
 20
2427.720557830089
 30
0.0
 11
3241.429836069363
 21
2427.720557830089
 31
0.0
  0
INSERT
  5
15B
330
157
100
AcDbEntity
  8
0
 62
     0
100
AcDbBlockReference
  2
_OPEN
 10
3351.429836069366
 20
2427.720557830089
 30
0.0
 41
10.0
 42
10.0
 43
10.0
  0
INSERT
  5
15C
330
157
100
AcDbEntity
  8
0
 62
     0
100
AcDbBlockReference
  2
_OPEN
 10
3231.429836069362
 20
2427.720557830089
 30
0.0
 41
10.0
 42
10.0
 43
10.0
 50
180.0
  0
MTEXT
  5
15D
330
157
100
AcDbEntity
  8
0
 62
     0
100
AcDbMText
 10
3291.429836069365
 20
2442.720557830089
 30
0.0
 40
10.0
 41
0.0
 71
     5
 72
     1
  1
\A1;120.0
1001
ACAD
1000
MTEXTBEGIN
1070
    73
1070
     1
1070
    44
1040
1.0
1070
    74
1070
     0
1000
MTEXTEND
  0
POINT
  5
15E
330
157
100
AcDbEntity
  8
DEFPOINTS
 62
     0
100
AcDbPoint
 10
3351.429836069366
 20
2580.671607708184
 30
0.0
  0
POINT
  5
15F
330
157
100
AcDbEntity
  8
DEFPOINTS
 62
     0
100
AcDbPoint
 10
3231.429836069362
 20
2580.671607708183
 30
0.0
  0
POINT
  5
160
330
157
100
AcDbEntity
  8
DEFPOINTS
 62
     0
100
AcDbPoint
 10
3231.429836069362
 20
2427.720557830089
 30
0.0
  0
ENDBLK
  5
162
330
157
100
AcDbEntity
  8
0
100
AcDbBlockEnd
  0
BLOCK
  5
1A4
330
19A
100
AcDbEntity
  8
0
100
AcDbBlockBegin
  2
*D16
 70
     1
 10
0.0
 20
0.0
 30
0.0
  3
*D16
  1

  0
LINE
  5
19B
330
19A
100
AcDbEntity
  8
0
 62
     0
100
AcDbLine
 10
3231.429836069362
 20
2580.671607708183
 30
0.0
 11
3231.429836069362
 21
2427.720557830089
 31
0.0
  0
LINE
  5
19C
330
19A
100
AcDbEntity
  8
0
 62
     0
100
AcDbLine
 10
3171.429836069364
 20
2684.594656162315
 30
0.0
 11
3171.429836069364
 21
2427.720557830089
 31
0.0
  0
LINE
  5
19D
330
19A
100
AcDbEntity
  8
0
 62
     0
100
AcDbLine
 10
3221.429836069363
 20
2427.720557830089
 30
0.0
 11
3181.429836069364
 21
2427.720557830089
 31
0.0
  0
INSERT
  5
19E
330
19A
100
AcDbEntity
  8
0
 62
     0
100
AcDbBlockReference
  2
_OPEN
 10
3231.429836069362
 20
2427.720557830089
 30
0.0
 41
10.0
 42
10.0
 43
10.0
  0
INSERT
  5
19F
330
19A
100
AcDbEntity
  8
0
 62
     0
100
AcDbBlockReference
  2
_OPEN
 10
3171.429836069364
 20
2427.720557830089
 30
0.0
 41
10.0
 42
10.0
 43
10.0
 50
180.0
  0
MTEXT
  5
1A0
330
19A
100
AcDbEntity
  8
0
 62
     0
100
AcDbMText
 10
3201.429836069364
 20
2442.720557830089
 30
0.0
 40
10.0
 41
0.0
 71
     5
 72
     1
  1
\A1;60.0
1001
ACAD
1000
MTEXTBEGIN
1070
    73
1070
     1
1070
    44
1040
1.0
1070
    74
1070
     0
1000
MTEXTEND
  0
POINT
  5
1A1
330
19A
100
AcDbEntity
  8
DEFPOINTS
 62
     0
100
AcDbPoint
 10
3231.429836069362
 20
2580.671607708183
 30
0.0
  0
POINT
  5
1A2
330
19A
100
AcDbEntity
  8
DEFPOINTS
 62
     0
100
AcDbPoint
 10
3171.429836069364
 20
2684.594656162315
 30
0.0
  0
POINT
  5
1A3
330
19A
100
AcDbEntity
  8
DEFPOINTS
 62
     0
100
AcDbPoint
 10
3171.429836069364
 20
2427.720557830089
 30
0.0
  0
ENDBLK
  5
1A5
330
19A
100
AcDbEntity
  8
0
100
AcDbBlockEnd
  0
BLOCK
  5
197
330
18D
100
AcDbEntity
  8
0
100
AcDbBlockBegin
  2
*D17
 70
     1
 10
0.0
 20
0.0
 30
0.0
  3
*D17
  1

  0
LINE
  5
18E
330
18D
100
AcDbEntity
  8
0
 62
     0
100
AcDbLine
 10
3171.429836069364
 20
2684.594656162315
 30
0.0
 11
3171.429836069364
 21
2427.720557830089
 31
0.0
  0
LINE
  5
18F
330
18D
100
AcDbEntity
  8
0
 62
     0
100
AcDbLine
 10
3101.429836069368
 20
2664.594656162315
 30
0.0
 11
3101.429836069368
 21
2427.720557830089
 31
0.0
  0
LINE
  5
190
330
18D
100
AcDbEntity
  8
0
 62
     0
100
AcDbLine
 10
3161.429836069364
 20
2427.720557830089
 30
0.0
 11
3111.429836069368
 21
2427.720557830089
 31
0.0
  0
INSERT
  5
191
330
18D
100
AcDbEntity
  8
0
 62
     0
100
AcDbBlockReference
  2
_OPEN
 10
3171.429836069364
 20
2427.720557830089
 30
0.0
 41
10.0
 42
10.0
 43
10.0
  0
INSERT
  5
192
330
18D
100
AcDbEntity
  8
0
 62
     0
100
AcDbBlockReference
  2
_OPEN
 10
3101.429836069368
 20
2427.720557830089
 30
0.0
 41
10.0
 42
10.0
 43
10.0
 50
180.0
  0
MTEXT
  5
193
330
18D
100
AcDbEntity
  8
0
 62
     0
100
AcDbMText
 10
3136.429836069366
 20
2442.720557830089
 30
0.0
 40
10.0
 41
0.0
 71
     5
 72
     1
  1
\A1;70.0
1001
ACAD
1000
MTEXTBEGIN
1070
    73
1070
     1
1070
    44
1040
1.0
1070
    74
1070
     0
1000
MTEXTEND
  0
POINT
  5
194
330
18D
100
AcDbEntity
  8
DEFPOINTS
 62
     0
100
AcDbPoint
 10
3171.429836069364
 20
2684.594656162315
 30
0.0
  0
POINT
  5
195
330
18D
100
AcDbEntity
  8
DEFPOINTS
 62
     0
100
AcDbPoint
 10
3101.429836069368
 20
2664.594656162315
 30
0.0
  0
POINT
  5
196
330
18D
100
AcDbEntity
  8
DEFPOINTS
 62
     0
100
AcDbPoint
 10
3101.429836069368
 20
2427.720557830089
 30
0.0
  0
ENDBLK
  5
198
330
18D
100
AcDbEntity
  8
0
100
AcDbBlockEnd
  0
BLOCK
  5
126
330
11C
100
AcDbEntity
  8
0
100
AcDbBlockBegin
  2
*D18
 70
     1
 10
0.0
 20
0.0
 30
0.0
  3
*D18
  1

  0
LINE
  5
11D
330
11C
100
AcDbEntity
  8
0
 62
     0
100
AcDbLine
 10
3351.429836069366
 20
2580.671607708184
 30
0.0
 11
3351.429836069366
 21
2472.958762491467
 31
0.0
  0
LINE
  5
11E
330
11C
100
AcDbEntity
  8
0
 62
     0
100
AcDbLine
 10
3251.429836069366
 20
2753.87668846507
 30
0.0
 11
3251.429836069366
 21
2472.958762491467
 31
0.0
  0
LINE
  5
11F
330
11C
100
AcDbEntity
  8
0
 62
     0
100
AcDbLine
 10
3341.429836069366
 20
2472.958762491467
 30
0.0
 11
3261.429836069366
 21
2472.958762491467
 31
0.0
  0
INSERT
  5
120
330
11C
100
AcDbEntity
  8
0
 62
     0
100
AcDbBlockReference
  2
_OPEN
 10
3351.429836069366
 20
2472.958762491467
 30
0.0
 41
10.0
 42
10.0
 43
10.0
  0
INSERT
  5
121
330
11C
100
AcDbEntity
  8
0
 62
     0
100
AcDbBlockReference
  2
_OPEN
 10
3251.429836069366
 20
2472.958762491467
 30
0.0
 41
10.0
 42
10.0
 43
10.0
 50
180.0
  0
MTEXT
  5
122
330
11C
100
AcDbEntity
  8
0
 62
     0
100
AcDbMText
 10
3301.429836069366
 20
2497.958762491467
 30
0.0
 40
10.0
 41
0.0
 71
     5
 72
     1
  1
\A1;100.0
1001
ACAD
1000
MTEXTBEGIN
1070
    73
1070
     1
1070
    44
1040
1.0
1070
    74
1070
     0
1000
MTEXTEND
  0
POINT
  5
123
330
11C
100
AcDbEntity
  8
DEFPOINTS
 62
     0
100
AcDbPoint
 10
3351.429836069366
 20
2580.671607708184
 30
0.0
  0
POINT
  5
124
330
11C
100
AcDbEntity
  8
DEFPOINTS
 62
     0
100
AcDbPoint
 10
3251.429836069366
 20
2753.87668846507
 30
0.0
  0
POINT
  5
125
330
11C
100
AcDbEntity
  8
DEFPOINTS
 62
     0
100
AcDbPoint
 10
3251.429836069366
 20
2472.958762491467
 30
0.0
  0
ENDBLK
  5
127
330
11C
100
AcDbEntity
  8
0
100
AcDbBlockEnd
  0
BLOCK
  5
119
330
10D
100
AcDbEntity
  8
0
100
AcDbBlockBegin
  2
*D19
 70
     1
 10
0.0
 20
0.0
 30
0.0
  3
*D19
  1

  0
LINE
  5
10E
330
10D
100
AcDbEntity
  8
0
 62
     0
100
AcDbLine
 10
3251.429836069366
 20
2753.87668846507
 30
0.0
 11
3251.429836069366
 21
2472.958762491467
 31
0.0
  0
LINE
  5
10F
330
10D
100
AcDbEntity
  8
0
 62
     0
100
AcDbLine
 10
3231.429836069362
 20
2580.671607708183
 30
0.0
 11
3231.429836069362
 21
2472.958762491467
 31
0.0
  0
LINE
  5
110
330
10D
100
AcDbEntity
  8
0
 62
     0
100
AcDbLine
 10
3261.429836069366
 20
2472.958762491467
 30
0.0
 11
3271.429836069366
 21
2472.958762491467
 31
0.0
  0
LINE
  5
111
330
10D
100
AcDbEntity
  8
0
 62
     0
100
AcDbLine
 10
3221.429836069363
 20
2472.958762491467
 30
0.0
 11
3211.429836069363
 21
2472.958762491467
 31
0.0
  0
LINE
  5
112
330
10D
100
AcDbEntity
  8
0
 62
     0
100
AcDbLine
 10
3251.429836069366
 20
2472.958762491467
 30
0.0
 11
3231.429836069362
 21
2472.958762491467
 31
0.0
  0
INSERT
  5
113
330
10D
100
AcDbEntity
  8
0
 62
     0
100
AcDbBlockReference
  2
_OPEN
 10
3251.429836069366
 20
2472.958762491467
 30
0.0
 41
10.0
 42
10.0
 43
10.0
 50
180.0
  0
INSERT
  5
114
330
10D
100
AcDbEntity
  8
0
 62
     0
100
AcDbBlockReference
  2
_OPEN
 10
3231.429836069362
 20
2472.958762491467
 30
0.0
 41
10.0
 42
10.0
 43
10.0
  0
MTEXT
  5
115
330
10D
100
AcDbEntity
  8
0
 62
     0
100
AcDbMText
 10
3241.429836069364
 20
2497.958762491467
 30
0.0
 40
10.0
 41
0.0
 71
     5
 72
     1
  1
\A1;20.0
1001
ACAD
1000
MTEXTBEGIN
1070
    73
1070
     1
1070
    44
1040
1.0
1070
    74
1070
     0
1000
MTEXTEND
  0
POINT
  5
116
330
10D
100
AcDbEntity
  8
DEFPOINTS
 62
     0
100
AcDbPoint
 10
3251.429836069366
 20
2753.87668846507
 30
0.0
  0
POINT
  5
117
330
10D
100
AcDbEntity
  8
DEFPOINTS
 62
     0
100
AcDbPoint
 10
3231.429836069362
 20
2580.671607708183
 30
0.0
  0
POINT
  5
118
330
10D
100
AcDbEntity
  8
DEFPOINTS
 62
     0
100
AcDbPoint
 10
3231.429836069362
 20
2472.958762491467
 30
0.0
  0
ENDBLK
  5
11A
330
10D
100
AcDbEntity
  8
0
100
AcDbBlockEnd
  0
BLOCK
  5
10A
330
100
100
AcDbEntity
  8
0
100
AcDbBlockBegin
  2
*D20
 70
     1
 10
0.0
 20
0.0
 30
0.0
  3
*D20
  1

  0
LINE
  5
101
330
100
100
AcDbEntity
  8
0
 62
     0
100
AcDbLine
 10
3251.429836069368
 20
2514.594656162315
 30
0.0
 11
2964.504079423312
 21
2514.594656162316
 31
0.0
  0
LINE
  5
102
330
100
100
AcDbEntity
  8
0
 62
     0
100
AcDbLine
 10
3251.429836069368
 20
2814.594656162315
 30
0.0
 11
2964.504079423312
 21
2814.594656162316
 31
0.0
  0
LINE
  5
103
330
100
100
AcDbEntity
  8
0
 62
     0
100
AcDbLine
 10
2964.504079423312
 20
2524.594656162316
 30
0.0
 11
2964.504079423312
 21
2804.594656162316
 31
0.0
  0
INSERT
  5
104
330
100
100
AcDbEntity
  8
0
 62
     0
100
AcDbBlockReference
  2
_OPEN
 10
2964.504079423312
 20
2514.594656162316
 30
0.0
 41
10.0
 42
10.0
 43
10.0
 50
270.0
  0
INSERT
  5
105
330
100
100
AcDbEntity
  8
0
 62
     0
100
AcDbBlockReference
  2
_OPEN
 10
2964.504079423312
 20
2814.594656162316
 30
0.0
 41
10.0
 42
10.0
 43
10.0
 50
90.0
  0
MTEXT
  5
106
330
100
100
AcDbEntity
  8
0
 62
     0
100
AcDbMText
 10
2949.504079423311
 20
2664.594656162316
 30
0.0
 40
10.0
 41
0.0
 71
     5
 72
     1
  1
\A1;300.0
 11
0.0000000000000001
 21
1.0
 31
0.0
1001
ACAD
1000
MTEXTBEGIN
1070
    73
1070
     1
1070
    44
1040
1.0
1070
    74
1070
     0
1000
MTEXTEND
  0
POINT
  5
107
330
100
100
AcDbEntity
  8
DEFPOINTS
 62
     0
100
AcDbPoint
 10
3251.429836069368
 20
2514.594656162315
 30
0.0
  0
POINT
  5
108
330
100
100
AcDbEntity
  8
DEFPOINTS
 62
     0
100
AcDbPoint
 10
3251.429836069368
 20
2814.594656162315
 30
0.0
  0
POINT
  5
109
330
100
100
AcDbEntity
  8
DEFPOINTS
 62
     0
100
AcDbPoint
 10
2964.504079423312
 20
2814.594656162316
 30
0.0
  0
ENDBLK
  5
10B
330
100
100
AcDbEntity
  8
0
100
AcDbBlockEnd
  0
BLOCK
  5
180
330
176
100
AcDbEntity
  8
0
100
AcDbBlockBegin
  2
*D21
 70
     1
 10
0.0
 20
0.0
 30
0.0
  3
*D21
  1

  0
LINE
  5
177
330
176
100
AcDbEntity
  8
0
 62
     0
100
AcDbLine
 10
3251.429836069368
 20
2514.594656162315
 30
0.0
 11
3017.177596104651
 21
2514.594656162316
 31
0.0
  0
LINE
  5
178
330
176
100
AcDbEntity
  8
0
 62
     0
100
AcDbLine
 10
3231.429836069362
 20
2580.671607708183
 30
0.0
 11
3017.177596104651
 21
2580.671607708184
 31
0.0
  0
LINE
  5
179
330
176
100
AcDbEntity
  8
0
 62
     0
100
AcDbLine
 10
3017.177596104651
 20
2524.594656162316
 30
0.0
 11
3017.177596104651
 21
2570.671607708184
 31
0.0
  0
INSERT
  5
17A
330
176
100
AcDbEntity
  8
0
 62
     0
100
AcDbBlockReference
  2
_OPEN
 10
3017.177596104651
 20
2514.594656162316
 30
0.0
 41
10.0
 42
10.0
 43
10.0
 50
270.0
  0
INSERT
  5
17B
330
176
100
AcDbEntity
  8
0
 62
     0
100
AcDbBlockReference
  2
_OPEN
 10
3017.177596104651
 20
2580.671607708184
 30
0.0
 41
10.0
 42
10.0
 43
10.0
 50
90.0
  0
MTEXT
  5
17C
330
176
100
AcDbEntity
  8
0
 62
     0
100
AcDbMText
 10
3002.177596104651
 20
2547.63313193525
 30
0.0
 40
10.0
 41
0.0
 71
     5
 72
     1
  1
\A1;66.1
 11
0.0000000000000001
 21
1.0
 31
0.0
1001
ACAD
1000
MTEXTBEGIN
1070
    73
1070
     1
1070
    44
1040
1.0
1070
    74
1070
     0
1000
MTEXTEND
  0
POINT
  5
17D
330
176
100
AcDbEntity
  8
DEFPOINTS
 62
     0
100
AcDbPoint
 10
3251.429836069368
 20
2514.594656162315
 30
0.0
  0
POINT
  5
17E
330
176
100
AcDbEntity
  8
DEFPOINTS
 62
     0
100
AcDbPoint
 10
3231.429836069362
 20
2580.671607708183
 30
0.0
  0
POINT
  5
17F
330
176
100
AcDbEntity
  8
DEFPOINTS
 62
     0
100
AcDbPoint
 10
3017.177596104651
 20
2580.671607708184
 30
0.0
  0
ENDBLK
  5
181
330
176
100
AcDbEntity
  8
0
100
AcDbBlockEnd
  0
BLOCK
  5
173
330
169
100
AcDbEntity
  8
0
100
AcDbBlockBegin
  2
*D22
 70
     1
 10
0.0
 20
0.0
 30
0.0
  3
*D22
  1

  0
LINE
  5
16A
330
169
100
AcDbEntity
  8
0
 62
     0
100
AcDbLine
 10
3231.429836069362
 20
2580.671607708183
 30
0.0
 11
3016.534342940349
 21
2580.671607708184
 31
0.0
  0
LINE
  5
16B
330
169
100
AcDbEntity
  8
0
 62
     0
100
AcDbLine
 10
3171.429836069364
 20
2684.594656162315
 30
0.0
 11
3016.534342940349
 21
2684.594656162315
 31
0.0
  0
LINE
  5
16C
330
169
100
AcDbEntity
  8
0
 62
     0
100
AcDbLine
 10
3016.534342940349
 20
2590.671607708184
 30
0.0
 11
3016.534342940349
 21
2674.594656162315
 31
0.0
  0
INSERT
  5
16D
330
169
100
AcDbEntity
  8
0
 62
     0
100
AcDbBlockReference
  2
_OPEN
 10
3016.534342940349
 20
2580.671607708184
 30
0.0
 41
10.0
 42
10.0
 43
10.0
 50
270.0
  0
INSERT
  5
16E
330
169
100
AcDbEntity
  8
0
 62
     0
100
AcDbBlockReference
  2
_OPEN
 10
3016.534342940349
 20
2684.594656162315
 30
0.0
 41
10.0
 42
10.0
 43
10.0
 50
90.0
  0
MTEXT
  5
16F
330
169
100
AcDbEntity
  8
0
 62
     0
100
AcDbMText
 10
3001.534342940348
 20
2632.63313193525
 30
0.0
 40
10.0
 41
0.0
 71
     5
 72
     1
  1
\A1;103.9
 11
0.0000000000000001
 21
1.0
 31
0.0
1001
ACAD
1000
MTEXTBEGIN
1070
    73
1070
     1
1070
    44
1040
1.0
1070
    74
1070
     0
1000
MTEXTEND
  0
POINT
  5
170
330
169
100
AcDbEntity
  8
DEFPOINTS
 62
     0
100
AcDbPoint
 10
3231.429836069362
 20
2580.671607708183
 30
0.0
  0
POINT
  5
171
330
169
100
AcDbEntity
  8
DEFPOINTS
 62
     0
100
AcDbPoint
 10
3171.429836069364
 20
2684.594656162315
 30
0.0
  0
POINT
  5
172
330
169
100
AcDbEntity
  8
DEFPOINTS
 62
     0
100
AcDbPoint
 10
3016.534342940349
 20
2684.594656162315
 30
0.0
  0
ENDBLK
  5
174
330
169
100
AcDbEntity
  8
0
100
AcDbBlockEnd
  0
BLOCK
  5
FD
330
F3
100
AcDbEntity
  8
0
100
AcDbBlockBegin
  2
*D23
 70
     1
 10
0.0
 20
0.0
 30
0.0
  3
*D23
  1

  0
LINE
  5
F4
330
F3
100
AcDbEntity
  8
0
 62
     0
100
AcDbLine
 10
3171.429836069364
 20
2684.594656162315
 30
0.0
 11
3015.873221632593
 21
2684.594656162315
 31
0.0
  0
LINE
  5
F5
330
F3
100
AcDbEntity
  8
0
 62
     0
100
AcDbLine
 10
3251.429836069366
 20
2753.87668846507
 30
0.0
 11
3015.873221632593
 21
2753.876688465071
 31
0.0
  0
LINE
  5
F6
330
F3
100
AcDbEntity
  8
0
 62
     0
100
AcDbLine
 10
3015.873221632593
 20
2694.594656162315
 30
0.0
 11
3015.873221632593
 21
2743.87668846507
 31
0.0
  0
INSERT
  5
F7
330
F3
100
AcDbEntity
  8
0
 62
     0
100
AcDbBlockReference
  2
_OPEN
 10
3015.873221632593
 20
2684.594656162315
 30
0.0
 41
10.0
 42
10.0
 43
10.0
 50
270.0
  0
INSERT
  5
F8
330
F3
100
AcDbEntity
  8
0
 62
     0
100
AcDbBlockReference
  2
_OPEN
 10
3015.873221632593
 20
2753.876688465071
 30
0.0
 41
10.0
 42
10.0
 43
10.0
 50
90.0
  0
MTEXT
  5
F9
330
F3
100
AcDbEntity
  8
0
 62
     0
100
AcDbMText
 10
3000.873221632593
 20
2719.235672313693
 30
0.0
 40
10.0
 41
0.0
 71
     5
 72
     1
  1
\A1;69.3
 11
0.0000000000000001
 21
1.0
 31
0.0
1001
ACAD
1000
MTEXTBEGIN
1070
    73
1070
     1
1070
    44
1040
1.0
1070
    74
1070
     0
1000
MTEXTEND
  0
POINT
  5
FA
330
F3
100
AcDbEntity
  8
DEFPOINTS
 62
     0
100
AcDbPoint
 10
3171.429836069364
 20
2684.594656162315
 30
0.0
  0
POINT
  5
FB
330
F3
100
AcDbEntity
  8
DEFPOINTS
 62
     0
100
AcDbPoint
 10
3251.429836069366
 20
2753.87668846507
 30
0.0
  0
POINT
  5
FC
330
F3
100
AcDbEntity
  8
DEFPOINTS
 62
     0
100
AcDbPoint
 10
3015.873221632593
 20
2753.876688465071
 30
0.0
  0
ENDBLK
  5
FE
330
F3
100
AcDbEntity
  8
0
100
AcDbBlockEnd
  0
BLOCK
  5
21A
330
210
100
AcDbEntity
  8
0
100
AcDbBlockBegin
  2
*D24
 70
     1
 10
0.0
 20
0.0
 30
0.0
  3
*D24
  1

  0
LINE
  5
211
330
210
100
AcDbEntity
  8
0
 62
     0
100
AcDbLine
 10
3251.429836069367
 20
2753.87668846507
 30
0.0
 11
3015.873221632593
 21
2753.876688465071
 31
0.0
  0
LINE
  5
212
330
210
100
AcDbEntity
  8
0
 62
     0
100
AcDbLine
 10
3251.429836069368
 20
2814.594656162315
 30
0.0
 11
3015.873221632593
 21
2814.594656162315
 31
0.0
  0
LINE
  5
213
330
210
100
AcDbEntity
  8
0
 62
     0
100
AcDbLine
 10
3015.873221632593
 20
2763.876688465071
 30
0.0
 11
3015.873221632593
 21
2804.594656162315
 31
0.0
  0
INSERT
  5
214
330
210
100
AcDbEntity
  8
0
 62
     0
100
AcDbBlockReference
  2
_OPEN
 10
3015.873221632593
 20
2753.876688465071
 30
0.0
 41
10.0
 42
10.0
 43
10.0
 50
270.0
  0
INSERT
  5
215
330
210
100
AcDbEntity
  8
0
 62
     0
100
AcDbBlockReference
  2
_OPEN
 10
3015.873221632593
 20
2814.594656162315
 30
0.0
 41
10.0
 42
10.0
 43
10.0
 50
90.0
  0
MTEXT
  5
216
330
210
100
AcDbEntity
  8
0
 62
     0
100
AcDbMText
 10
3000.873221632593
 20
2784.235672313693
 30
0.0
 40
10.0
 41
0.0
 71
     5
 72
     1
  1
\A1;60.7
 11
0.0000000000000001
 21
1.0
 31
0.0
1001
ACAD
1000
MTEXTBEGIN
1070
    73
1070
     1
1070
    44
1040
1.0
1070
    74
1070
     0
1000
MTEXTEND
  0
POINT
  5
217
330
210
100
AcDbEntity
  8
DEFPOINTS
 62
     0
100
AcDbPoint
 10
3251.429836069367
 20
2753.87668846507
 30
0.0
  0
POINT
  5
218
330
210
100
AcDbEntity
  8
DEFPOINTS
 62
     0
100
AcDbPoint
 10
3251.429836069368
 20
2814.594656162315
 30
0.0
  0
POINT
  5
219
330
210
100
AcDbEntity
  8
DEFPOINTS
 62
     0
100
AcDbPoint
 10
3015.873221632593
 20
2814.594656162315
 30
0.0
  0
ENDBLK
  5
21B
330
210
100
AcDbEntity
  8
0
100
AcDbBlockEnd
  0
BLOCK
  5
F0
330
E6
100
AcDbEntity
  8
0
100
AcDbBlockBegin
  2
*D25
 70
     1
 10
0.0
 20
0.0
 30
0.0
  3
*D25
  1

  0
LINE
  5
E7
330
E6
100
AcDbEntity
  8
0
 62
     0
100
AcDbLine
 10
3101.429836069368
 20
2664.594656162315
 30
0.0
 11
3101.429836069368
 21
2854.426913666615
 31
0.0
  0
LINE
  5
E8
330
E6
100
AcDbEntity
  8
0
 62
     0
100
AcDbLine
 10
3171.429836069358
 20
2684.59465616232
 30
0.0
 11
3171.429836069358
 21
2854.426913666615
 31
0.0
  0
LINE
  5
E9
330
E6
100
AcDbEntity
  8
0
 62
     0
100
AcDbLine
 10
3111.429836069368
 20
2854.426913666615
 30
0.0
 11
3161.429836069357
 21
2854.426913666615
 31
0.0
  0
INSERT
  5
EA
330
E6
100
AcDbEntity
  8
0
 62
     0
100
AcDbBlockReference
  2
_OPEN
 10
3101.429836069368
 20
2854.426913666615
 30
0.0
 41
10.0
 42
10.0
 43
10.0
 50
180.0
  0
INSERT
  5
EB
330
E6
100
AcDbEntity
  8
0
 62
     0
100
AcDbBlockReference
  2
_OPEN
 10
3171.429836069358
 20
2854.426913666615
 30
0.0
 41
10.0
 42
10.0
 43
10.0
  0
MTEXT
  5
EC
330
E6
100
AcDbEntity
  8
0
 62
     0
100
AcDbMText
 10
3136.429836069362
 20
2869.426913666615
 30
0.0
 40
10.0
 41
0.0
 71
     5
 72
     1
  1
\A1;70.0
1001
ACAD
1000
MTEXTBEGIN
1070
    73
1070
     1
1070
    44
1040
1.0
1070
    74
1070
     0
1000
MTEXTEND
  0
POINT
  5
ED
330
E6
100
AcDbEntity
  8
DEFPOINTS
 62
     0
100
AcDbPoint
 10
3101.429836069368
 20
2664.594656162315
 30
0.0
  0
POINT
  5
EE
330
E6
100
AcDbEntity
  8
DEFPOINTS
 62
     0
100
AcDbPoint
 10
3171.429836069358
 20
2684.59465616232
 30
0.0
  0
POINT
  5
EF
330
E6
100
AcDbEntity
  8
DEFPOINTS
 62
     0
100
AcDbPoint
 10
3171.429836069358
 20
2854.426913666615
 30
0.0
  0
ENDBLK
  5
F1
330
E6
100
AcDbEntity
  8
0
100
AcDbBlockEnd
  0
BLOCK
  5
E3
330
D9
100
AcDbEntity
  8
0
100
AcDbBlockBegin
  2
*D26
 70
     1
 10
0.0
 20
0.0
 30
0.0
  3
*D26
  1

  0
LINE
  5
DA
330
D9
100
AcDbEntity
  8
0
 62
     0
100
AcDbLine
 10
3171.42983606937
 20
2684.594656162318
 30
0.0
 11
3171.42983606937
 21
2854.426913666615
 31
0.0
  0
LINE
  5
DB
330
D9
100
AcDbEntity
  8
0
 62
     0
100
AcDbLine
 10
3251.429836069366
 20
2753.87668846507
 30
0.0
 11
3251.429836069366
 21
2854.426913666615
 31
0.0
  0
LINE
  5
DC
330
D9
100
AcDbEntity
  8
0
 62
     0
100
AcDbLine
 10
3181.429836069369
 20
2854.426913666615
 30
0.0
 11
3241.429836069366
 21
2854.426913666615
 31
0.0
  0
INSERT
  5
DD
330
D9
100
AcDbEntity
  8
0
 62
     0
100
AcDbBlockReference
  2
_OPEN
 10
3171.42983606937
 20
2854.426913666615
 30
0.0
 41
10.0
 42
10.0
 43
10.0
 50
180.0
  0
INSERT
  5
DE
330
D9
100
AcDbEntity
  8
0
 62
     0
100
AcDbBlockReference
  2
_OPEN
 10
3251.429836069366
 20
2854.426913666615
 30
0.0
 41
10.0
 42
10.0
 43
10.0
  0
MTEXT
  5
DF
330
D9
100
AcDbEntity
  8
0
 62
     0
100
AcDbMText
 10
3211.429836069368
 20
2869.426913666615
 30
0.0
 40
10.0
 41
0.0
 71
     5
 72
     1
  1
\A1;80.0
1001
ACAD
1000
MTEXTBEGIN
1070
    73
1070
     1
1070
    44
1040
1.0
1070
    74
1070
     0
1000
MTEXTEND
  0
POINT
  5
E0
330
D9
100
AcDbEntity
  8
DEFPOINTS
 62
     0
100
AcDbPoint
 10
3171.42983606937
 20
2684.594656162318
 30
0.0
  0
POINT
  5
E1
330
D9
100
AcDbEntity
  8
DEFPOINTS
 62
     0
100
AcDbPoint
 10
3251.429836069366
 20
2753.87668846507
 30
0.0
  0
POINT
  5
E2
330
D9
100
AcDbEntity
  8
DEFPOINTS
 62
     0
100
AcDbPoint
 10
3251.429836069366
 20
2854.426913666615
 30
0.0
  0
ENDBLK
  5
E4
330
D9
100
AcDbEntity
  8
0
100
AcDbBlockEnd
  0
BLOCK
  5
D6
330
CA
100
AcDbEntity
  8
0
100
AcDbBlockBegin
  2
*D27
 70
     1
 10
0.0
 20
0.0
 30
0.0
  3
*D27
  1

  0
LINE
  5
CB
330
CA
100
AcDbEntity
  8
0
 62
     0
100
AcDbLine
 10
3251.429836069367
 20
2753.87668846507
 30
0.0
 11
3251.429836069367
 21
2854.426913666615
 31
0.0
  0
LINE
  5
CC
330
CA
100
AcDbEntity
  8
0
 62
     0
100
AcDbLine
 10
3291.429836069365
 20
2684.594656162319
 30
0.0
 11
3291.429836069365
 21
2854.426913666615
 31
0.0
  0
LINE
  5
CD
330
CA
100
AcDbEntity
  8
0
 62
     0
100
AcDbLine
 10
3241.429836069368
 20
2854.426913666615
 30
0.0
 11
3231.429836069367
 21
2854.426913666615
 31
0.0
  0
LINE
  5
CE
330
CA
100
AcDbEntity
  8
0
 62
     0
100
AcDbLine
 10
3301.429836069364
 20
2854.426913666615
 30
0.0
 11
3311.429836069364
 21
2854.426913666615
 31
0.0
  0
LINE
  5
CF
330
CA
100
AcDbEntity
  8
0
 62
     0
100
AcDbLine
 10
3251.429836069367
 20
2854.426913666615
 30
0.0
 11
3291.429836069365
 21
2854.426913666615
 31
0.0
  0
INSERT
  5
D0
330
CA
100
AcDbEntity
  8
0
 62
     0
100
AcDbBlockReference
  2
_OPEN
 10
3251.429836069367
 20
2854.426913666615
 30
0.0
 41
10.0
 42
10.0
 43
10.0
  0
INSERT
  5
D1
330
CA
100
AcDbEntity
  8
0
 62
     0
100
AcDbBlockReference
  2
_OPEN
 10
3291.429836069365
 20
2854.426913666615
 30
0.0
 41
10.0
 42
10.0
 43
10.0
 50
180.0
  0
MTEXT
  5
D2
330
CA
100
AcDbEntity
  8
0
 62
     0
100
AcDbMText
 10
3271.429836069366
 20
2869.426913666615
 30
0.0
 40
10.0
 41
0.0
 71
     5
 72
     1
  1
\A1;40.0
1001
ACAD
1000
MTEXTBEGIN
1070
    73
1070
     1
1070
    44
1040
1.0
1070
    74
1070
     0
1000
MTEXTEND
  0
POINT
  5
D3
330
CA
100
AcDbEntity
  8
DEFPOINTS
 62
     0
100
AcDbPoint
 10
3251.429836069367
 20
2753.87668846507
 30
0.0
  0
POINT
  5
D4
330
CA
100
AcDbEntity
  8
DEFPOINTS
 62
     0
100
AcDbPoint
 10
3291.429836069365
 20
2684.594656162319
 30
0.0
  0
POINT
  5
D5
330
CA
100
AcDbEntity
  8
DEFPOINTS
 62
     0
100
AcDbPoint
 10
3291.429836069365
 20
2854.426913666615
 30
0.0
  0
ENDBLK
  5
D7
330
CA
100
AcDbEntity
  8
0
100
AcDbBlockEnd
  0
BLOCK
  5
C7
330
BE
100
AcDbEntity
  8
0
100
AcDbBlockBegin
  2
*D28
 70
     1
 10
0.0
 20
0.0
 30
0.0
  3
*D28
  1

  0
LINE
  5
BF
330
BE
100
AcDbEntity
  8
0
 62
     0
100
AcDbLine
 10
3291.429836069365
 20
2684.594656162319
 30
0.0
 11
3291.429836069365
 21
2854.426913666615
 31
0.0
  0
LINE
  5
C0
330
BE
100
AcDbEntity
  8
0
 62
     0
100
AcDbLine
 10
3301.429836069364
 20
2854.426913666615
 30
0.0
 11
3401.42983606936
 21
2854.426913666615
 31
0.0
  0
INSERT
  5
C1
330
BE
100
AcDbEntity
  8
0
 62
     0
100
AcDbBlockReference
  2
_OPEN
 10
3291.429836069365
 20
2854.426913666615
 30
0.0
 41
10.0
 42
10.0
 43
10.0
 50
180.0
  0
INSERT
  5
C2
330
BE
100
AcDbEntity
  8
0
 62
     0
100
AcDbBlockReference
  2
_OPEN
 10
3411.42983606936
 20
2854.426913666615
 30
0.0
 41
10.0
 42
10.0
 43
10.0
  0
MTEXT
  5
C3
330
BE
100
AcDbEntity
  8
0
 62
     0
100
AcDbMText
 10
3351.429836069362
 20
2869.426913666615
 30
0.0
 40
10.0
 41
0.0
 71
     5
 72
     1
  1
\A1;120.0
1001
ACAD
1000
MTEXTBEGIN
1070
    73
1070
     1
1070
    44
1040
1.0
1070
    74
1070
     0
1000
MTEXTEND
  0
POINT
  5
C4
330
BE
100
AcDbEntity
  8
DEFPOINTS
 62
     0
100
AcDbPoint
 10
3291.429836069365
 20
2684.594656162319
 30
0.0
  0
POINT
  5
C5
330
BE
100
AcDbEntity
  8
DEFPOINTS
 62
     0
100
AcDbPoint
 10
3411.42983606936
 20
2854.426913666615
 30
0.0
  0
POINT
  5
C6
330
BE
100
AcDbEntity
  8
DEFPOINTS
 62
     0
100
AcDbPoint
 10
3411.42983606936
 20
2854.426913666615
 30
0.0
  0
ENDBLK
  5
C8
330
BE
100
AcDbEntity
  8
0
100
AcDbBlockEnd
  0
BLOCK
  5
BB
330
AF
100
AcDbEntity
  8
0
100
AcDbBlockBegin
  2
*D29
 70
     1
 10
0.0
 20
0.0
 30
0.0
  3
*D29
  1

  0
LINE
  5
B0
330
AF
100
AcDbEntity
  8
0
 62
     0
100
AcDbLine
 10
3291.429836069368
 20
2684.594656162315
 30
0.0
 11
3291.429836069368
 21
2713.019069252601
 31
0.0
  0
LINE
  5
B1
330
AF
100
AcDbEntity
  8
0
 62
     0
100
AcDbLine
 10
3251.429836069368
 20
2664.594656162315
 30
0.0
 11
3251.429836069368
 21
2713.019069252601
 31
0.0
  0
LINE
  5
B2
330
AF
100
AcDbEntity
  8
0
 62
     0
100
AcDbLine
 10
3301.429836069369
 20
2713.019069252601
 30
0.0
 11
3311.429836069368
 21
2713.019069252601
 31
0.0
  0
LINE
  5
B3
330
AF
100
AcDbEntity
  8
0
 62
     0
100
AcDbLine
 10
3241.429836069368
 20
2713.019069252601
 30
0.0
 11
3231.429836069368
 21
2713.019069252601
 31
0.0
  0
LINE
  5
B4
330
AF
100
AcDbEntity
  8
0
 62
     0
100
AcDbLine
 10
3291.429836069368
 20
2713.019069252601
 30
0.0
 11
3251.429836069368
 21
2713.019069252601
 31
0.0
  0
INSERT
  5
B5
330
AF
100
AcDbEntity
  8
0
 62
     0
100
AcDbBlockReference
  2
_OPEN
 10
3291.429836069368
 20
2713.019069252601
 30
0.0
 41
10.0
 42
10.0
 43
10.0
 50
180.0
  0
INSERT
  5
B6
330
AF
100
AcDbEntity
  8
0
 62
     0
100
AcDbBlockReference
  2
_OPEN
 10
3251.429836069368
 20
2713.019069252601
 30
0.0
 41
10.0
 42
10.0
 43
10.0
  0
MTEXT
  5
B7
330
AF
100
AcDbEntity
  8
0
 62
     0
100
AcDbMText
 10
3271.429836069368
 20
2728.019069252601
 30
0.0
 40
10.0
 41
0.0
 71
     5
 72
     1
  1
\A1;40.0
1001
ACAD
1000
MTEXTBEGIN
1070
    73
1070
     1
1070
    44
1040
1.0
1070
    74
1070
     0
1000
MTEXTEND
  0
POINT
  5
B8
330
AF
100
AcDbEntity
  8
DEFPOINTS
 62
     0
100
AcDbPoint
 10
3291.429836069368
 20
2684.594656162315
 30
0.0
  0
POINT
  5
B9
330
AF
100
AcDbEntity
  8
DEFPOINTS
 62
     0
100
AcDbPoint
 10
3251.429836069368
 20
2664.594656162315
 30
0.0
  0
POINT
  5
BA
330
AF
100
AcDbEntity
  8
DEFPOINTS
 62
     0
100
AcDbPoint
 10
3251.429836069368
 20
2713.019069252601
 30
0.0
  0
ENDBLK
  5
BC
330
AF
100
AcDbEntity
  8
0
100
AcDbBlockEnd
  0
BLOCK
  5
1B5
330
1A9
100
AcDbEntity
  8
0
100
AcDbBlockBegin
  2
*D30
 70
     1
 10
0.0
 20
0.0
 30
0.0
  3
*D30
  1

  0
LINE
  5
1AA
330
1A9
100
AcDbEntity
  8
0
 62
     0
100
AcDbLine
 10
3251.429836069368
 20
2664.594656162315
 30
0.0
 11
3207.901283714817
 21
2664.594656162315
 31
0.0
  0
LINE
  5
1AB
330
1A9
100
AcDbEntity
  8
0
 62
     0
100
AcDbLine
 10
3291.429836069365
 20
2684.594656162319
 30
0.0
 11
3207.901283714817
 21
2684.594656162319
 31
0.0
  0
LINE
  5
1AC
330
1A9
100
AcDbEntity
  8
0
 62
     0
100
AcDbLine
 10
3207.901283714817
 20
2654.594656162315
 30
0.0
 11
3207.901283714817
 21
2644.594656162315
 31
0.0
  0
LINE
  5
1AD
330
1A9
100
AcDbEntity
  8
0
 62
     0
100
AcDbLine
 10
3207.901283714817
 20
2694.594656162319
 30
0.0
 11
3207.901283714817
 21
2704.594656162319
 31
0.0
  0
LINE
  5
1AE
330
1A9
100
AcDbEntity
  8
0
 62
     0
100
AcDbLine
 10
3207.901283714817
 20
2664.594656162315
 30
0.0
 11
3207.901283714817
 21
2684.594656162319
 31
0.0
  0
INSERT
  5
1AF
330
1A9
100
AcDbEntity
  8
0
 62
     0
100
AcDbBlockReference
  2
_OPEN
 10
3207.901283714817
 20
2664.594656162315
 30
0.0
 41
10.0
 42
10.0
 43
10.0
 50
90.0
  0
INSERT
  5
1B0
330
1A9
100
AcDbEntity
  8
0
 62
     0
100
AcDbBlockReference
  2
_OPEN
 10
3207.901283714817
 20
2684.594656162319
 30
0.0
 41
10.0
 42
10.0
 43
10.0
 50
270.0
  0
MTEXT
  5
1B1
330
1A9
100
AcDbEntity
  8
0
 62
     0
100
AcDbMText
 10
3192.901283714816
 20
2674.594656162318
 30
0.0
 40
10.0
 41
0.0
 71
     5
 72
     1
  1
\A1;20.0
 11
0.0000000000000001
 21
1.0
 31
0.0
1001
ACAD
1000
MTEXTBEGIN
1070
    73
1070
     1
1070
    44
1040
1.0
1070
    74
1070
     0
1000
MTEXTEND
  0
POINT
  5
1B2
330
1A9
100
AcDbEntity
  8
DEFPOINTS
 62
     0
100
AcDbPoint
 10
3251.429836069368
 20
2664.594656162315
 30
0.0
  0
POINT
  5
1B3
330
1A9
100
AcDbEntity
  8
DEFPOINTS
 62
     0
100
AcDbPoint
 10
3291.429836069365
 20
2684.594656162319
 30
0.0
  0
POINT
  5
1B4
330
1A9
100
AcDbEntity
  8
DEFPOINTS
 62
     0
100
AcDbPoint
 10
3207.901283714817
 20
2684.594656162319
 30
0.0
  0
ENDBLK
  5
1B6
330
1A9
100
AcDbEntity
  8
0
100
AcDbBlockEnd
  0
BLOCK
  5
18A
330
183
100
AcDbEntity
  8
0
100
AcDbBlockBegin
  2
*D31
 70
     1
 10
0.0
 20
0.0
 30
0.0
  3
*D31
  1

  0
LINE
  5
184
330
183
100
AcDbEntity
  8
0
 62
     0
100
AcDbLine
 10
3044.000272581789
 20
2450.200444438774
 30
0.0
 11
3140.17589817093
 21
2549.605259685551
 31
0.0
  0
MTEXT
  5
185
330
183
100
AcDbEntity
  8
0
 62
     0
100
AcDbMText
 10
3055.239025204491
 20
2483.388819169446
 30
0.0
 40
10.0
 41
0.0
 71
     5
 72
     1
  1
\A1;R150.0
 11
0.6953371118652338
 21
0.7186837279797808
 31
0.0
1001
ACAD
1000
MTEXTBEGIN
1070
    73
1070
     1
1070
    44
1040
1.0
1070
    74
1070
     0
1000
MTEXTEND
  0
LINE
  5
186
330
183
100
AcDbEntity
  8
0
 62
     0
100
AcDbLine
 10
3251.42983606937
 20
2664.594656162319
 30
0.0
 11
3147.129269289583
 21
2556.792096965349
 31
0.0
  0
INSERT
  5
187
330
183
100
AcDbEntity
  8
0
 62
     0
100
AcDbBlockReference
  2
_OPEN
 10
3147.129269289583
 20
2556.792096965349
 30
0.0
 41
10.0
 42
10.0
 43
10.0
 50
45.94591324230182
  0
POINT
  5
188
330
183
100
AcDbEntity
  8
DEFPOINTS
 62
     0
100
AcDbPoint
 10
3147.129269289583
 20
2556.792096965349
 30
0.0
  0
POINT
  5
189
330
183
100
AcDbEntity
  8
DEFPOINTS
 62
     0
100
AcDbPoint
 10
3251.42983606937
 20
2664.594656162319
 30
0.0
  0
ENDBLK
  5
18B
330
183
100
AcDbEntity
  8
0
100
AcDbBlockEnd
  0
BLOCK
  5
1C2
330
1BB
100
AcDbEntity
  8
0
100
AcDbBlockBegin
  2
*D32
 70
     1
 10
0.0
 20
0.0
 30
0.0
  3
*D32
  1

  0
LINE
  5
1BC
330
1BB
100
AcDbEntity
  8
0
 62
     0
100
AcDbLine
 10
3651.785655463927
 20
2446.612761787667
 30
0.0
 11
3752.555903918231
 21
2550.01086977302
 31
0.0
  0
MTEXT
  5
1BD
330
1BB
100
AcDbEntity
  8
0
 62
     0
100
AcDbMText
 10
3663.145104874774
 20
2479.760019394597
 30
0.0
 40
10.0
 41
0.0
 71
     5
 72
     1
  1
\A1;R150.0
 11
0.6979477700476872
 21
0.7161486649330995
 31
0.0
1001
ACAD
1000
MTEXTBEGIN
1070
    73
1070
     1
1070
    44
1040
1.0
1070
    74
1070
     0
1000
MTEXTEND
  0
LINE
  5
1BE
330
1BB
100
AcDbEntity
  8
0
 62
     0
100
AcDbLine
 10
3864.227547125863
 20
2664.594656162317
 30
0.0
 11
3759.535381618709
 21
2557.172356422351
 31
0.0
  0
INSERT
  5
1BF
330
1BB
100
AcDbEntity
  8
0
 62
     0
100
AcDbBlockReference
  2
_OPEN
 10
3759.535381618709
 20
2557.172356422351
 30
0.0
 41
10.0
 42
10.0
 43
10.0
 50
45.73741567661779
  0
POINT
  5
1C0
330
1BB
100
AcDbEntity
  8
DEFPOINTS
 62
     0
100
AcDbPoint
 10
3759.535381618709
 20
2557.172356422351
 30
0.0
  0
POINT
  5
1C1
330
1BB
100
AcDbEntity
  8
DEFPOINTS
 62
     0
100
AcDbPoint
 10
3864.227547125863
 20
2664.594656162317
 30
0.0
  0
ENDBLK
  5
1C3
330
1BB
100
AcDbEntity
  8
0
100
AcDbBlockEnd
  0
BLOCK
  5
43
330
39
100
AcDbEntity
  8
0
100
AcDbBlockBegin
  2
*D33
 70
     1
 10
0.0
 20
0.0
 30
0.0
  3
*D33
  1

  0
LINE
  5
3A
330
39
100
AcDbEntity
  8
0
 62
     0
100
AcDbLine
 10
3934.22754712587
 20
2654.594656162315
 30
0.0
 11
3976.781220449853
 21
2654.594656162315
 31
0.0
  0
LINE
  5
3B
330
39
100
AcDbEntity
  8
0
 62
     0
100
AcDbLine
 10
3934.22754712587
 20
2714.594656162315
 30
0.0
 11
3976.781220449853
 21
2714.594656162315
 31
0.0
  0
LINE
  5
3C
330
39
100
AcDbEntity
  8
0
 62
     0
100
AcDbLine
 10
3976.781220449853
 20
2664.594656162315
 30
0.0
 11
3976.781220449853
 21
2704.594656162315
 31
0.0
  0
INSERT
  5
3D
330
39
100
AcDbEntity
  8
0
 62
     0
100
AcDbBlockReference
  2
_OPEN
 10
3976.781220449853
 20
2654.594656162315
 30
0.0
 41
10.0
 42
10.0
 43
10.0
 50
270.0
  0
INSERT
  5
3E
330
39
100
AcDbEntity
  8
0
 62
     0
100
AcDbBlockReference
  2
_OPEN
 10
3976.781220449853
 20
2714.594656162315
 30
0.0
 41
10.0
 42
10.0
 43
10.0
 50
90.0
  0
MTEXT
  5
3F
330
39
100
AcDbEntity
  8
0
 62
     0
100
AcDbMText
 10
3961.781220449852
 20
2684.594656162315
 30
0.0
 40
10.0
 41
0.0
 71
     5
 72
     1
  1
\A1;60.0
 11
0.0000000000000001
 21
1.0
 31
0.0
1001
ACAD
1000
MTEXTBEGIN
1070
    73
1070
     1
1070
    44
1040
1.0
1070
    74
1070
     0
1000
MTEXTEND
  0
POINT
  5
40
330
39
100
AcDbEntity
  8
DEFPOINTS
 62
     0
100
AcDbPoint
 10
3934.22754712587
 20
2654.594656162315
 30
0.0
  0
POINT
  5
41
330
39
100
AcDbEntity
  8
DEFPOINTS
 62
     0
100
AcDbPoint
 10
3934.22754712587
 20
2714.594656162315
 30
0.0
  0
POINT
  5
42
330
39
100
AcDbEntity
  8
DEFPOINTS
 62
     0
100
AcDbPoint
 10
3976.781220449853
 20
2714.594656162315
 30
0.0
  0
ENDBLK
  5
44
330
39
100
AcDbEntity
  8
0
100
AcDbBlockEnd
  0
BLOCK
  5
36
330
2B
100
AcDbEntity
  8
0
100
AcDbBlockBegin
  2
*D34
 70
     1
 10
0.0
 20
0.0
 30
0.0
  3
*D34
  1

  0
LINE
  5
2C
330
2B
100
AcDbEntity
  8
0
 62
     0
100
AcDbLine
 10
3944.22754712587
 20
2644.594656162315
 30
0.0
 11
3999.347645203446
 21
2644.594656162315
 31
0.0
  0
LINE
  5
2D
330
2B
100
AcDbEntity
  8
0
 62
     0
100
AcDbLine
 10
3944.22754712587
 20
2724.594656162315
 30
0.0
 11
3999.347645203446
 21
2724.594656162315
 31
0.0
  0
LINE
  5
2E
330
2B
100
AcDbEntity
  8
0
 62
     0
100
AcDbLine
 10
3999.347645203446
 20
2654.594656162315
 30
0.0
 11
3999.347645203446
 21
2714.594656162315
 31
0.0
  0
INSERT
  5
2F
330
2B
100
AcDbEntity
  8
0
 62
     0
100
AcDbBlockReference
  2
_OPEN
 10
3999.347645203446
 20
2644.594656162315
 30
0.0
 41
10.0
 42
10.0
 43
10.0
 50
270.0
  0
INSERT
  5
30
330
2B
100
AcDbEntity
  8
0
 62
     0
100
AcDbBlockReference
  2
_OPEN
 10
3999.347645203446
 20
2724.594656162315
 30
0.0
 41
10.0
 42
10.0
 43
10.0
 50
90.0
  0
MTEXT
  5
31
330
2B
100
AcDbEntity
  8
0
 62
     0
100
AcDbMText
 10
3984.347645203445
 20
2684.594656162315
 30
0.0
 40
10.0
 41
0.0
 71
     5
 72
     1
  1
\A1;80.0
 11
0.0000000000000001
 21
1.0
 31
0.0
1001
ACAD
1000
MTEXTBEGIN
1070
    73
1070
     1
1070
    44
1040
1.0
1070
    74
1070
     0
1000
MTEXTEND
  0
POINT
  5
32
330
2B
100
AcDbEntity
  8
DEFPOINTS
 62
     0
100
AcDbPoint
 10
3944.22754712587
 20
2644.594656162315
 30
0.0
  0
POINT
  5
34
330
2B
100
AcDbEntity
  8
DEFPOINTS
 62
     0
100
AcDbPoint
 10
3944.22754712587
 20
2724.594656162315
 30
0.0
  0
POINT
  5
35
330
2B
100
AcDbEntity
  8
DEFPOINTS
 62
     0
100
AcDbPoint
 10
3999.347645203446
 20
2724.594656162315
 30
0.0
  0
ENDBLK
  5
37
330
2B
100
AcDbEntity
  8
0
100
AcDbBlockEnd
  0
BLOCK
  5
AA
330
9E
100
AcDbEntity
  8
0
100
AcDbBlockBegin
  2
*D35
 70
     1
 10
0.0
 20
0.0
 30
0.0
  3
*D35
  1

  0
LINE
  5
9F
330
9E
100
AcDbEntity
  8
0
 62
     0
100
AcDbLine
 10
3904.22754712587
 20
2684.594656162315
 30
0.0
 11
3904.22754712587
 21
2727.84623893737
 31
0.0
  0
LINE
  5
A0
330
9E
100
AcDbEntity
  8
0
 62
     0
100
AcDbLine
 10
3864.22754712587
 20
2664.594656162315
 30
0.0
 11
3864.22754712587
 21
2727.84623893737
 31
0.0
  0
LINE
  5
A1
330
9E
100
AcDbEntity
  8
0
 62
     0
100
AcDbLine
 10
3914.22754712587
 20
2727.84623893737
 30
0.0
 11
3924.22754712587
 21
2727.84623893737
 31
0.0
  0
LINE
  5
A2
330
9E
100
AcDbEntity
  8
0
 62
     0
100
AcDbLine
 10
3854.22754712587
 20
2727.84623893737
 30
0.0
 11
3844.22754712587
 21
2727.84623893737
 31
0.0
  0
LINE
  5
A3
330
9E
100
AcDbEntity
  8
0
 62
     0
100
AcDbLine
 10
3904.22754712587
 20
2727.84623893737
 30
0.0
 11
3864.22754712587
 21
2727.84623893737
 31
0.0
  0
INSERT
  5
A4
330
9E
100
AcDbEntity
  8
0
 62
     0
100
AcDbBlockReference
  2
_OPEN
 10
3904.22754712587
 20
2727.84623893737
 30
0.0
 41
10.0
 42
10.0
 43
10.0
 50
180.0
  0
INSERT
  5
A5
330
9E
100
AcDbEntity
  8
0
 62
     0
100
AcDbBlockReference
  2
_OPEN
 10
3864.22754712587
 20
2727.84623893737
 30
0.0
 41
10.0
 42
10.0
 43
10.0
  0
MTEXT
  5
A6
330
9E
100
AcDbEntity
  8
0
 62
     0
100
AcDbMText
 10
3884.22754712587
 20
2742.846238937371
 30
0.0
 40
10.0
 41
0.0
 71
     5
 72
     1
  1
\A1;40.0
1001
ACAD
1000
MTEXTBEGIN
1070
    73
1070
     1
1070
    44
1040
1.0
1070
    74
1070
     0
1000
MTEXTEND
  0
POINT
  5
A7
330
9E
100
AcDbEntity
  8
DEFPOINTS
 62
     0
100
AcDbPoint
 10
3904.22754712587
 20
2684.594656162315
 30
0.0
  0
POINT
  5
A8
330
9E
100
AcDbEntity
  8
DEFPOINTS
 62
     0
100
AcDbPoint
 10
3864.22754712587
 20
2664.594656162315
 30
0.0
  0
POINT
  5
A9
330
9E
100
AcDbEntity
  8
DEFPOINTS
 62
     0
100
AcDbPoint
 10
3864.22754712587
 20
2727.84623893737
 30
0.0
  0
ENDBLK
  5
AB
330
9E
100
AcDbEntity
  8
0
100
AcDbBlockEnd
  0
BLOCK
  5
1E1
330
1D5
100
AcDbEntity
  8
0
100
AcDbBlockBegin
  2
*D36
 70
     1
 10
0.0
 20
0.0
 30
0.0
  3
*D36
  1

  0
LINE
  5
1D6
330
1D5
100
AcDbEntity
  8
0
 62
     0
100
AcDbLine
 10
3864.22754712587
 20
2664.594656162315
 30
0.0
 11
3820.698994771319
 21
2664.594656162315
 31
0.0
  0
LINE
  5
1D7
330
1D5
100
AcDbEntity
  8
0
 62
     0
100
AcDbLine
 10
3904.227547125866
 20
2684.594656162318
 30
0.0
 11
3820.698994771319
 21
2684.594656162318
 31
0.0
  0
LINE
  5
1D8
330
1D5
100
AcDbEntity
  8
0
 62
     0
100
AcDbLine
 10
3820.698994771319
 20
2654.594656162315
 30
0.0
 11
3820.698994771319
 21
2644.594656162315
 31
0.0
  0
LINE
  5
1D9
330
1D5
100
AcDbEntity
  8
0
 62
     0
100
AcDbLine
 10
3820.698994771319
 20
2694.594656162319
 30
0.0
 11
3820.698994771319
 21
2704.594656162318
 31
0.0
  0
LINE
  5
1DA
330
1D5
100
AcDbEntity
  8
0
 62
     0
100
AcDbLine
 10
3820.698994771319
 20
2664.594656162315
 30
0.0
 11
3820.698994771319
 21
2684.594656162318
 31
0.0
  0
INSERT
  5
1DB
330
1D5
100
AcDbEntity
  8
0
 62
     0
100
AcDbBlockReference
  2
_OPEN
 10
3820.698994771319
 20
2664.594656162315
 30
0.0
 41
10.0
 42
10.0
 43
10.0
 50
90.0
  0
INSERT
  5
1DC
330
1D5
100
AcDbEntity
  8
0
 62
     0
100
AcDbBlockReference
  2
_OPEN
 10
3820.698994771319
 20
2684.594656162318
 30
0.0
 41
10.0
 42
10.0
 43
10.0
 50
270.0
  0
MTEXT
  5
1DD
330
1D5
100
AcDbEntity
  8
0
 62
     0
100
AcDbMText
 10
3805.698994771318
 20
2674.594656162317
 30
0.0
 40
10.0
 41
0.0
 71
     5
 72
     1
  1
\A1;20.0
 11
0.0000000000000001
 21
1.0
 31
0.0
1001
ACAD
1000
MTEXTBEGIN
1070
    73
1070
     1
1070
    44
1040
1.0
1070
    74
1070
     0
1000
MTEXTEND
  0
POINT
  5
1DE
330
1D5
100
AcDbEntity
  8
DEFPOINTS
 62
     0
100
AcDbPoint
 10
3864.22754712587
 20
2664.594656162315
 30
0.0
  0
POINT
  5
1DF
330
1D5
100
AcDbEntity
  8
DEFPOINTS
 62
     0
100
AcDbPoint
 10
3904.227547125866
 20
2684.594656162318
 30
0.0
  0
POINT
  5
1E0
330
1D5
100
AcDbEntity
  8
DEFPOINTS
 62
     0
100
AcDbPoint
 10
3820.698994771319
 20
2684.594656162318
 30
0.0
  0
ENDBLK
  5
1E2
330
1D5
100
AcDbEntity
  8
0
100
AcDbBlockEnd
  0
ENDSEC
  0
SECTION
  2
ENTITIES
  0
DIMENSION
  5
2A
330
2
100
AcDbEntity
  8
0
100
AcDbDimension
  2
*D34
 10
3999.347645203446
 20
2724.594656162315
 30
0.0
 11
3984.347645203445
 21
2684.594656162315
 31
0.0
  3
STANDARD
100
AcDbAlignedDimension
 13
3944.22754712587
 23
2644.594656162315
 33
0.0
 14
3944.22754712587
 24
2724.594656162315
 34
0.0
 50
90.0
100
AcDbRotatedDimension
1001
ACAD
1000
DSTYLE
1002
{
1070
   147
1040
0.5
1070
   140
1040
0.5
1070
    41
1040
0.5
1002
}
  0
DIMENSION
  5
38
330
2
100
AcDbEntity
  8
0
100
AcDbDimension
  2
*D33
 10
3976.781220449853
 20
2714.594656162315
 30
0.0
 11
3961.781220449852
 21
2684.594656162315
 31
0.0
  3
STANDARD
100
AcDbAlignedDimension
 13
3934.22754712587
 23
2654.594656162315
 33
0.0
 14
3934.22754712587
 24
2714.594656162315
 34
0.0
 50
90.0
100
AcDbRotatedDimension
1001
ACAD
1000
DSTYLE
1002
{
1070
   147
1040
0.5
1070
   140
1040
0.5
1070
    41
1040
0.5
1002
}
  0
ARC
  5
45
330
2
100
AcDbEntity
  8
1
100
AcDbCircle
 10
3904.227547125866
 20
2684.594656162318
 30
0.0
 40
50.00000000000477
100
AcDbArc
 50
196.6015495989922
 51
359.9999591100578
  0
CIRCLE
  5
47
330
2
100
AcDbEntity
  8
2
100
AcDbCircle
 10
3964.227547125868
 20
2580.671607708183
 30
0.0
 40
12.0
  0
ARC
  5
49
330
2
100
AcDbEntity
  8
1
100
AcDbCircle
 10
3904.22754712587
 20
2684.594656162315
 30
0.0
 40
90.00000000000046
100
AcDbArc
 50
196.6015495989922
 51
0.000000000000007
  0
LWPOLYLINE
  5
4A
330
2
100
AcDbEntity
  8
4
  6
HIDDEN2
100
AcDbPolyline
 90
        3
 70
     0
 43
0.0
 10
4024.227547125869
 20
2734.594656162315
 10
4024.227547125868
 20
2684.594656162314
 42
-0.9999999999999893
 10
3784.227547125866
 20
2684.594656162314
  0
ARC
  5
4E
330
2
100
AcDbEntity
  8
1
100
AcDbCircle
 10
3904.227547125866
 20
2684.594656162315
 30
0.0
 40
150.0000000000009
100
AcDbArc
 50
180.0
 51
0.000000000000007
  0
DIMENSION
  5
4F
330
2
100
AcDbEntity
  8
0
100
AcDbDimension
  2
*D12
 10
4024.227547125861
 20
3077.350703737876
 30
0.0
 11
3869.227547125861
 21
3092.350703737877
 31
0.0
  3
STANDARD
100
AcDbAlignedDimension
 13
3714.227547125862
 23
3062.44624616614
 33
0.0
 14
4024.227547125861
 24
3062.44624616614
 34
0.0
100
AcDbRotatedDimension
1001
ACAD
1000
DSTYLE
1002
{
1070
   147
1040
0.5
1070
   140
1040
0.5
1070
    41
1040
0.5
1002
}
  0
DIMENSION
  5
5C
330
2
100
AcDbEntity
  8
0
100
AcDbDimension
  2
*D9
 10
3954.227547125861
 20
2996.670624873711
 30
0.0
 11
3989.227547125861
 21
3011.670624873712
 31
0.0
  3
STANDARD
100
AcDbAlignedDimension
 13
4024.227547125861
 23
2974.594656162315
 33
0.0
 14
3954.227547125861
 24
2974.594656162315
 34
0.0
100
AcDbRotatedDimension
1001
ACAD
1000
DSTYLE
1002
{
1070
   147
1040
0.5
1070
   140
1040
0.5
1070
    41
1040
0.5
1002
}
  0
DIMENSION
  5
69
330
2
100
AcDbEntity
  8
0
100
AcDbDimension
  2
*D10
 10
3924.227547125862
 20
3030.998560502919
 30
0.0
 11
3974.227547125861
 21
3045.998560502919
 31
0.0
  3
STANDARD
100
AcDbAlignedDimension
 13
4024.227547125861
 23
2974.594656162315
 33
0.0
 14
3924.227547125862
 24
2974.594656162315
 34
0.0
100
AcDbRotatedDimension
1001
ACAD
1000
DSTYLE
1002
{
1070
   147
1040
0.5
1070
   140
1040
0.5
1070
    41
1040
0.5
1002
}
  0
DIMENSION
  5
76
330
2
100
AcDbEntity
  8
0
100
AcDbDimension
  2
*D3
 10
4024.227547125863
 20
2820.101780830351
 30
0.0
 11
3979.227547125862
 21
2835.101780830351
 31
0.0
  3
STANDARD
100
AcDbAlignedDimension
 13
3934.227547125861
 23
2724.594656162313
 33
0.0
 14
4024.227547125863
 24
2820.101780830351
 34
0.0
100
AcDbRotatedDimension
1001
ACAD
1000
DSTYLE
1002
{
1070
   147
1040
0.5
1070
   140
1040
0.5
1070
    41
1040
0.5
1002
}
  0
DIMENSION
  5
82
330
2
100
AcDbEntity
  8
0
100
AcDbDimension
  2
*D4
 10
4024.227547125867
 20
2752.626553457124
 30
0.0
 11
3984.227547125865
 21
2767.626553457125
 31
0.0
  3
STANDARD
100
AcDbAlignedDimension
 13
3944.227547125862
 23
2734.594656162313
 33
0.0
 14
4024.227547125867
 24
2752.626553457124
 34
0.0
100
AcDbRotatedDimension
1001
ACAD
1000
DSTYLE
1002
{
1070
   147
1040
0.5
1070
   140
1040
0.5
1070
    41
1040
0.5
1002
}
  0
LINE
  5
8E
330
2
100
AcDbEntity
  8
1
100
AcDbLine
 10
3954.227547125862
 20
2734.594656162315
 30
0.0
 11
3994.227547125866
 21
2734.594656162315
 31
0.0
  0
DIMENSION
  5
8F
330
2
100
AcDbEntity
  8
0
100
AcDbDimension
  2
*D1
 10
3714.227547125862
 20
2387.988500555133
 30
0.0
 11
3843.391932551655
 21
2387.988500555133
 31
0.0
 70
   128
  3
STANDARD
100
AcDbAlignedDimension
 13
4024.227547125868
 23
2684.594656162318
 33
0.0
 14
3714.227547125862
 24
2664.594656162315
 34
0.0
100
AcDbRotatedDimension
1001
ACAD
1000
DSTYLE
1002
{
1070
   147
1040
0.5
1070
   140
1040
0.5
1070
    41
1040
0.5
1002
}
  0
LINE
  5
9C
330
2
100
AcDbEntity
  8
1
100
AcDbLine
 10
3864.227547125862
 20
2514.594656162315
 30
0.0
 11
4144.083656858896
 21
2514.594656162315
 31
0.0
  0
DIMENSION
  5
9D
330
2
100
AcDbEntity
  8
0
100
AcDbDimension
  2
*D35
 10
3864.22754712587
 20
2727.84623893737
 30
0.0
 11
3884.22754712587
 21
2742.846238937371
 31
0.0
  3
STANDARD
100
AcDbAlignedDimension
 13
3904.22754712587
 23
2684.594656162315
 33
0.0
 14
3864.22754712587
 24
2664.594656162315
 34
0.0
100
AcDbRotatedDimension
1001
ACAD
1000
DSTYLE
1002
{
1070
   147
1040
0.5
1070
   140
1040
0.5
1070
    41
1040
0.5
1002
}
  0
ARC
  5
AC
330
2
100
AcDbEntity
  8
1
100
AcDbCircle
 10
3854.227547125868
 20
2684.594656162318
 30
0.0
 40
99.99999999999682
100
AcDbArc
 50
0.000000000000007
 51
180.0
  0
ARC
  5
AD
330
2
100
AcDbEntity
  8
4
  6
HIDDEN2
100
AcDbCircle
 10
3854.227547125868
 20
2684.594656162318
 30
0.0
 40
69.99999999999682
100
AcDbArc
 50
0.000000000000007
 51
180.0
  0
DIMENSION
  5
AE
330
2
100
AcDbEntity
  8
0
100
AcDbDimension
  2
*D29
 10
3251.429836069368
 20
2713.019069252601
 30
0.0
 11
3271.429836069368
 21
2728.019069252601
 31
0.0
  3
STANDARD
100
AcDbAlignedDimension
 13
3291.429836069368
 23
2684.594656162315
 33
0.0
 14
3251.429836069368
 24
2664.594656162315
 34
0.0
100
AcDbRotatedDimension
1001
ACAD
1000
DSTYLE
1002
{
1070
   147
1040
0.5
1070
   140
1040
0.5
1070
    41
1040
0.5
1002
}
  0
DIMENSION
  5
BD
330
2
100
AcDbEntity
  8
0
100
AcDbDimension
  2
*D28
 10
3411.42983606936
 20
2854.426913666615
 30
0.0
 11
3351.429836069362
 21
2869.426913666615
 31
0.0
  3
STANDARD
100
AcDbAlignedDimension
 13
3291.429836069365
 23
2684.594656162319
 33
0.0
 14
3411.42983606936
 24
2854.426913666615
 34
0.0
100
AcDbRotatedDimension
1001
ACAD
1000
DSTYLE
1002
{
1070
   147
1040
0.5
1070
   140
1040
0.5
1070
    41
1040
0.5
1002
}
  0
DIMENSION
  5
C9
330
2
100
AcDbEntity
  8
0
100
AcDbDimension
  2
*D27
 10
3291.429836069365
 20
2854.426913666615
 30
0.0
 11
3271.429836069366
 21
2869.426913666615
 31
0.0
  3
STANDARD
100
AcDbAlignedDimension
 13
3251.429836069367
 23
2753.87668846507
 33
0.0
 14
3291.429836069365
 24
2684.594656162319
 34
0.0
100
AcDbRotatedDimension
1001
ACAD
1000
DSTYLE
1002
{
1070
   147
1040
0.5
1070
   140
1040
0.5
1070
    41
1040
0.5
1002
}
  0
DIMENSION
  5
D8
330
2
100
AcDbEntity
  8
0
100
AcDbDimension
  2
*D26
 10
3251.429836069366
 20
2854.426913666615
 30
0.0
 11
3211.429836069368
 21
2869.426913666615
 31
0.0
  3
STANDARD
100
AcDbAlignedDimension
 13
3171.42983606937
 23
2684.594656162318
 33
0.0
 14
3251.429836069366
 24
2753.87668846507
 34
0.0
100
AcDbRotatedDimension
1001
ACAD
1000
DSTYLE
1002
{
1070
   147
1040
0.5
1070
   140
1040
0.5
1070
    41
1040
0.5
1002
}
  0
DIMENSION
  5
E5
330
2
100
AcDbEntity
  8
0
100
AcDbDimension
  2
*D25
 10
3171.429836069358
 20
2854.426913666615
 30
0.0
 11
3136.429836069362
 21
2869.426913666615
 31
0.0
  3
STANDARD
100
AcDbAlignedDimension
 13
3101.429836069368
 23
2664.594656162315
 33
0.0
 14
3171.429836069358
 24
2684.59465616232
 34
0.0
100
AcDbRotatedDimension
1001
ACAD
1000
DSTYLE
1002
{
1070
   147
1040
0.5
1070
   140
1040
0.5
1070
    41
1040
0.5
1002
}
  0
DIMENSION
  5
F2
330
2
100
AcDbEntity
  8
0
100
AcDbDimension
  2
*D23
 10
3015.873221632593
 20
2753.876688465071
 30
0.0
 11
3000.873221632593
 21
2719.235672313693
 31
0.0
  3
STANDARD
100
AcDbAlignedDimension
 13
3171.429836069364
 23
2684.594656162315
 33
0.0
 14
3251.429836069366
 24
2753.87668846507
 34
0.0
 50
90.0
100
AcDbRotatedDimension
1001
ACAD
1000
DSTYLE
1002
{
1070
   147
1040
0.5
1070
   140
1040
0.5
1070
    41
1040
0.5
1002
}
  0
DIMENSION
  5
FF
330
2
100
AcDbEntity
  8
0
100
AcDbDimension
  2
*D20
 10
2964.504079423312
 20
2814.594656162316
 30
0.0
 11
2949.504079423311
 21
2664.594656162316
 31
0.0
  3
STANDARD
100
AcDbAlignedDimension
 13
3251.429836069368
 23
2514.594656162315
 33
0.0
 14
3251.429836069368
 24
2814.594656162315
 34
0.0
 50
90.0
100
AcDbRotatedDimension
1001
ACAD
1000
DSTYLE
1002
{
1070
   147
1040
0.5
1070
   140
1040
0.5
1070
    41
1040
0.5
1002
}
  0
DIMENSION
  5
10C
330
2
100
AcDbEntity
  8
0
100
AcDbDimension
  2
*D19
 10
3231.429836069362
 20
2472.958762491467
 30
0.0
 11
3241.429836069364
 21
2497.958762491467
 31
0.0
  3
STANDARD
100
AcDbAlignedDimension
 13
3251.429836069366
 23
2753.87668846507
 33
0.0
 14
3231.429836069362
 24
2580.671607708183
 34
0.0
100
AcDbRotatedDimension
1001
ACAD
1000
DSTYLE
1002
{
1070
   140
1040
0.5
1070
    41
1040
0.5
1002
}
  0
DIMENSION
  5
11B
330
2
100
AcDbEntity
  8
0
100
AcDbDimension
  2
*D18
 10
3251.429836069366
 20
2472.958762491467
 30
0.0
 11
3301.429836069366
 21
2497.958762491467
 31
0.0
  3
STANDARD
100
AcDbAlignedDimension
 13
3351.429836069366
 23
2580.671607708184
 33
0.0
 14
3251.429836069366
 24
2753.87668846507
 34
0.0
100
AcDbRotatedDimension
1001
ACAD
1000
DSTYLE
1002
{
1070
   140
1040
0.5
1070
    41
1040
0.5
1002
}
  0
DIMENSION
  5
128
330
2
100
AcDbEntity
  8
0
100
AcDbDimension
  2
*D13
 10
3101.429836069368
 20
2387.988500555133
 30
0.0
 11
3256.429836069367
 21
2402.988500555133
 31
0.0
  3
STANDARD
100
AcDbAlignedDimension
 13
3411.429836069366
 23
2734.594656162315
 33
0.0
 14
3101.429836069368
 24
2664.594656162315
 34
0.0
100
AcDbRotatedDimension
1001
ACAD
1000
DSTYLE
1002
{
1070
   147
1040
0.5
1070
   140
1040
0.5
1070
    41
1040
0.5
1002
}
  0
LINE
  5
135
330
2
100
AcDbEntity
  8
1
100
AcDbLine
 10
3381.429836069368
 20
2684.594656162315
 30
0.0
 11
3381.429836069367
 21
2734.594656162315
 31
0.0
  0
LINE
  5
136
330
2
100
AcDbEntity
  8
1
100
AcDbLine
 10
3441.429836069366
 20
2684.594656162315
 30
0.0
 11
3441.429836069366
 21
2734.594656162315
 31
0.0
  0
ARC
  5
137
330
2
100
AcDbEntity
  8
4
  6
HIDDEN2
100
AcDbCircle
 10
3241.429836069366
 20
2684.594656162318
 30
0.0
 40
69.99999999999682
100
AcDbArc
 50
0.000000000000007
 51
180.0
  0
ARC
  5
138
330
2
100
AcDbEntity
  8
1
100
AcDbCircle
 10
3241.429836069366
 20
2684.594656162318
 30
0.0
 40
99.99999999999682
100
AcDbArc
 50
0.000000000000007
 51
180.0
  0
LWPOLYLINE
  5
139
330
2
100
AcDbEntity
  8
4
  6
HIDDEN2
100
AcDbPolyline
 90
        3
 70
     0
 43
0.0
 10
3411.429836069366
 20
2734.594656162315
 10
3411.429836069366
 20
2684.594656162315
 42
-0.9999999999999893
 10
3171.429836069364
 20
2684.594656162315
  0
LINE
  5
13A
330
2
100
AcDbEntity
  8
4
  6
HIDDEN2
100
AcDbLine
 10
3101.429836069368
 20
2664.594656162315
 30
0.0
 11
3101.429836069368
 21
3062.44624616614
 31
0.0
  0
LINE
  5
13B
330
2
100
AcDbEntity
  8
4
  6
HIDDEN2
100
AcDbLine
 10
3714.227547125862
 20
2664.594656162315
 30
0.0
 11
3714.227547125862
 21
3062.44624616614
 31
0.0
  0
DIMENSION
  5
13C
330
2
100
AcDbEntity
  8
0
100
AcDbDimension
  2
*D6
 10
3531.285945802403
 20
2514.594656162315
 30
0.0
 11
3516.285945802403
 21
2624.594656162316
 31
0.0
  1
(220.0)
  3
STANDARD
100
AcDbAlignedDimension
 13
3531.285945802403
 23
2734.594656162315
 33
0.0
 14
3531.285945802403
 24
2514.594656162315
 34
0.0
 50
90.0
100
AcDbRotatedDimension
1001
ACAD
1000
DSTYLE
1002
{
1070
   147
1040
0.5
1070
   140
1040
0.5
1070
    41
1040
0.5
1002
}
  0
DIMENSION
  5
147
330
2
100
AcDbEntity
  8
0
100
AcDbDimension
  2
*D2
 10
3598.960278306265
 20
2814.594656162314
 30
0.0
 11
3583.960278306265
 21
2664.594656162316
 31
0.0
  3
STANDARD
100
AcDbAlignedDimension
 13
3864.227547125861
 23
2514.594656162315
 33
0.0
 14
3864.227547125862
 24
2814.594656162314
 34
0.0
 50
90.0
100
AcDbRotatedDimension
1001
ACAD
1000
DSTYLE
1002
{
1070
   147
1040
0.5
1070
   140
1040
0.5
1070
    41
1040
0.5
1002
}
  0
ARC
  5
154
330
2
100
AcDbEntity
  8
1
100
AcDbCircle
 10
3864.227547125862
 20
2664.594656162315
 30
0.0
 40
150.0
100
AcDbArc
 50
90.0
 51
270.0
  0
ARC
  5
155
330
2
100
AcDbEntity
  8
1
100
AcDbCircle
 10
3251.429836069368
 20
2664.594656162315
 30
0.0
 40
150.0
100
AcDbArc
 50
90.0
 51
270.0
  0
DIMENSION
  5
156
330
2
100
AcDbEntity
  8
0
100
AcDbDimension
  2
*D15
 10
3231.429836069362
 20
2427.720557830089
 30
0.0
 11
3291.429836069365
 21
2442.720557830089
 31
0.0
  3
STANDARD
100
AcDbAlignedDimension
 13
3351.429836069366
 23
2580.671607708184
 33
0.0
 14
3231.429836069362
 24
2580.671607708183
 34
0.0
100
AcDbRotatedDimension
1001
ACAD
1000
DSTYLE
1002
{
1070
    41
1040
0.5
1070
   147
1040
0.5
1070
   140
1040
0.5
1070
    46
1040
2.0
1002
}
  0
CIRCLE
  5
163
330
2
100
AcDbEntity
  8
2
100
AcDbCircle
 10
3351.429836069366
 20
2580.671607708184
 30
0.0
 40
12.0
  0
ARC
  5
164
330
2
100
AcDbEntity
  8
1
100
AcDbCircle
 10
3291.429836069365
 20
2684.594656162315
 30
0.0
 40
150.0000000000009
100
AcDbArc
 50
180.0
 51
0.000000000000007
  0
ARC
  5
165
330
2
100
AcDbEntity
  8
1
100
AcDbCircle
 10
3291.429836069368
 20
2684.594656162315
 30
0.0
 40
90.00000000000046
100
AcDbArc
 50
196.6015495989922
 51
0.000000000000007
  0
ARC
  5
166
330
2
100
AcDbEntity
  8
1
100
AcDbCircle
 10
3291.429836069365
 20
2684.594656162319
 30
0.0
 40
50.00000000000477
100
AcDbArc
 50
196.6015495989922
 51
359.9999591100578
  0
LINE
  5
167
330
2
100
AcDbEntity
  8
1
100
AcDbLine
 10
3251.429836069368
 20
2514.594656162315
 30
0.0
 11
3531.285945802403
 21
2514.594656162315
 31
0.0
  0
DIMENSION
  5
168
330
2
100
AcDbEntity
  8
0
100
AcDbDimension
  2
*D22
 10
3016.534342940349
 20
2684.594656162315
 30
0.0
 11
3001.534342940348
 21
2632.63313193525
 31
0.0
  3
STANDARD
100
AcDbAlignedDimension
 13
3231.429836069362
 23
2580.671607708183
 33
0.0
 14
3171.429836069364
 24
2684.594656162315
 34
0.0
 50
90.0
100
AcDbRotatedDimension
1001
ACAD
1000
DSTYLE
1002
{
1070
   147
1040
0.5
1070
   140
1040
0.5
1070
    41
1040
0.5
1002
}
  0
DIMENSION
  5
175
330
2
100
AcDbEntity
  8
0
100
AcDbDimension
  2
*D21
 10
3017.177596104651
 20
2580.671607708184
 30
0.0
 11
3002.177596104651
 21
2547.63313193525
 31
0.0
  3
STANDARD
100
AcDbAlignedDimension
 13
3251.429836069368
 23
2514.594656162315
 33
0.0
 14
3231.429836069362
 24
2580.671607708183
 34
0.0
 50
90.0
100
AcDbRotatedDimension
1001
ACAD
1000
DSTYLE
1002
{
1070
   147
1040
0.5
1070
   140
1040
0.5
1070
    41
1040
0.5
1002
}
  0
DIMENSION
  5
182
330
2
100
AcDbEntity
  8
0
100
AcDbDimension
  2
*D31
 10
3251.42983606937
 20
2664.594656162319
 30
0.0
 11
3066.019281124189
 21
2472.958762491467
 31
0.0
 70
   132
  3
STANDARD
100
AcDbRadialDimension
 15
3147.129269289583
 25
2556.792096965349
 35
0.0
 40
0.0
1001
ACAD
1000
DSTYLE
1002
{
1070
   147
1040
0.5
1070
   140
1040
0.5
1070
    41
1040
0.5
1002
}
  0
DIMENSION
  5
18C
330
2
100
AcDbEntity
  8
0
100
AcDbDimension
  2
*D17
 10
3101.429836069368
 20
2427.720557830089
 30
0.0
 11
3136.429836069366
 21
2442.720557830089
 31
0.0
  3
STANDARD
100
AcDbAlignedDimension
 13
3171.429836069364
 23
2684.594656162315
 33
0.0
 14
3101.429836069368
 24
2664.594656162315
 34
0.0
100
AcDbRotatedDimension
1001
ACAD
1000
DSTYLE
1002
{
1070
    41
1040
0.5
1070
   147
1040
0.5
1070
   140
1040
0.5
1070
    46
1040
2.0
1002
}
  0
DIMENSION
  5
199
330
2
100
AcDbEntity
  8
0
100
AcDbDimension
  2
*D16
 10
3171.429836069364
 20
2427.720557830089
 30
0.0
 11
3201.429836069364
 21
2442.720557830089
 31
0.0
  3
STANDARD
100
AcDbAlignedDimension
 13
3231.429836069362
 23
2580.671607708183
 33
0.0
 14
3171.429836069364
 24
2684.594656162315
 34
0.0
100
AcDbRotatedDimension
1001
ACAD
1000
DSTYLE
1002
{
1070
    41
1040
0.5
1070
   147
1040
0.5
1070
   140
1040
0.5
1070
    46
1040
2.0
1002
}
  0
CIRCLE
  5
1A6
330
2
100
AcDbEntity
  8
2
100
AcDbCircle
 10
3171.429836069364
 20
2684.594656162315
 30
0.0
 40
12.0
  0
CIRCLE
  5
1A7
330
2
100
AcDbEntity
  8
2
100
AcDbCircle
 10
3231.429836069362
 20
2580.671607708183
 30
0.0
 40
12.0
  0
DIMENSION
  5
1A8
330
2
100
AcDbEntity
  8
0
100
AcDbDimension
  2
*D30
 10
3207.901283714817
 20
2684.594656162319
 30
0.0
 11
3192.901283714816
 21
2674.594656162318
 31
0.0
  3
STANDARD
100
AcDbAlignedDimension
 13
3251.429836069368
 23
2664.594656162315
 33
0.0
 14
3291.429836069365
 24
2684.594656162319
 34
0.0
 50
90.0
100
AcDbRotatedDimension
1001
ACAD
1000
DSTYLE
1002
{
1070
   147
1040
0.5
1070
   140
1040
0.5
1070
    41
1040
0.5
1002
}
  0
ARC
  5
1B7
330
2
100
AcDbEntity
  8
1
100
AcDbCircle
 10
3224.34779674437
 20
2664.594656162318
 30
0.0
 40
19.99999999999495
100
AcDbArc
 50
16.60154959899221
 51
196.6015495989922
  0
CIRCLE
  5
1B8
330
2
100
AcDbEntity
  8
2
100
AcDbCircle
 10
3291.429836069365
 20
2684.594656162319
 30
0.0
 40
15.0
  0
ARC
  5
1B9
330
2
100
AcDbEntity
  8
4
  6
HIDDEN2
100
AcDbCircle
 10
3291.429836069365
 20
2684.594656162319
 30
0.0
 40
20.00000000000477
100
AcDbArc
 50
196.6015495989922
 51
359.9999591100578
  0
DIMENSION
  5
1BA
330
2
100
AcDbEntity
  8
0
100
AcDbDimension
  2
*D32
 10
3864.227547125863
 20
2664.594656162317
 30
0.0
 11
3673.887334848771
 21
2469.290802843882
 31
0.0
 70
   132
  3
STANDARD
100
AcDbRadialDimension
 15
3759.535381618709
 25
2557.172356422351
 35
0.0
 40
0.0
1001
ACAD
1000
DSTYLE
1002
{
1070
   147
1040
0.5
1070
   140
1040
0.5
1070
    41
1040
0.5
1002
}
  0
DIMENSION
  5
1C4
330
2
100
AcDbEntity
  8
0
100
AcDbDimension
  2
*D14
 10
3351.429836069366
 20
2427.720557830089
 30
0.0
 11
3381.429836069366
 21
2442.720557830089
 31
0.0
  3
STANDARD
100
AcDbAlignedDimension
 13
3411.429836069366
 23
2684.594656162315
 33
0.0
 14
3351.429836069366
 24
2580.671607708184
 34
0.0
100
AcDbRotatedDimension
1001
ACAD
1000
DSTYLE
1002
{
1070
    41
1040
0.5
1070
   147
1040
0.5
1070
   140
1040
0.5
1070
    46
1040
2.0
1002
}
  0
TEXT
  5
1D1
330
2
100
AcDbEntity
  8
3
100
AcDbText
 10
3364.603628058304
 20
2522.290830766249
 30
0.0
 40
10.0
  1
スターティングステップ前面
100
AcDbText
  0
CIRCLE
  5
1D3
330
2
100
AcDbEntity
  8
2
100
AcDbCircle
 10
3411.429836069366
 20
2684.594656162319
 30
0.0
 40
12.0
  0
DIMENSION
  5
1D4
330
2
100
AcDbEntity
  8
0
100
AcDbDimension
  2
*D36
 10
3820.698994771319
 20
2684.594656162318
 30
0.0
 11
3805.698994771318
 21
2674.594656162317
 31
0.0
  3
STANDARD
100
AcDbAlignedDimension
 13
3864.22754712587
 23
2664.594656162315
 33
0.0
 14
3904.227547125866
 24
2684.594656162318
 34
0.0
 50
90.0
100
AcDbRotatedDimension
1001
ACAD
1000
DSTYLE
1002
{
1070
   147
1040
0.5
1070
   140
1040
0.5
1070
    41
1040
0.5
1002
}
  0
CIRCLE
  5
1E3
330
2
100
AcDbEntity
  8
2
100
AcDbCircle
 10
3784.227547125866
 20
2684.594656162314
 30
0.0
 40
12.0
  0
CIRCLE
  5
1E4
330
2
100
AcDbEntity
  8
2
100
AcDbCircle
 10
3844.227547125864
 20
2580.671607708183
 30
0.0
 40
12.0
  0
LINE
  5
1E5
330
2
100
AcDbEntity
  8
2
100
AcDbLine
 10
3934.22754712587
 20
2654.594656162315
 30
0.0
 11
3874.227547125871
 21
2654.594656162315
 31
0.0
  0
LINE
  5
1E6
330
2
100
AcDbEntity
  8
2
100
AcDbLine
 10
3874.227547125871
 20
2714.594656162315
 30
0.0
 11
3934.22754712587
 21
2714.594656162315
 31
0.0
  0
LINE
  5
1E7
330
2
100
AcDbEntity
  8
2
100
AcDbLine
 10
3944.22754712587
 20
2644.594656162315
 30
0.0
 11
3864.22754712587
 21
2644.594656162315
 31
0.0
  0
LINE
  5
1E8
330
2
100
AcDbEntity
  8
2
100
AcDbLine
 10
3864.22754712587
 20
2724.594656162315
 30
0.0
 11
3944.22754712587
 21
2724.594656162315
 31
0.0
  0
LINE
  5
1E9
330
2
100
AcDbEntity
  8
2
100
AcDbLine
 10
3874.227547125871
 20
2654.594656162315
 30
0.0
 11
3874.227547125871
 21
2714.594656162315
 31
0.0
  0
LINE
  5
1EA
330
2
100
AcDbEntity
  8
2
100
AcDbLine
 10
3864.22754712587
 20
2644.594656162315
 30
0.0
 11
3864.22754712587
 21
2724.594656162315
 31
0.0
  0
ARC
  5
1EB
330
2
100
AcDbEntity
  8
1
100
AcDbCircle
 10
3837.145507800872
 20
2664.594656162318
 30
0.0
 40
19.99999999999495
100
AcDbArc
 50
16.60154959899221
 51
196.6015495989922
  0
LINE
  5
1EC
330
2
100
AcDbEntity
  8
2
100
AcDbLine
 10
3934.22754712587
 20
2714.594656162315
 30
0.0
 11
3934.22754712587
 21
2654.594656162315
 31
0.0
  0
LINE
  5
1ED
330
2
100
AcDbEntity
  8
2
100
AcDbLine
 10
3944.22754712587
 20
2724.594656162315
 30
0.0
 11
3944.22754712587
 21
2644.594656162315
 31
0.0
  0
CIRCLE
  5
1EE
330
2
100
AcDbEntity
  8
2
100
AcDbCircle
 10
3904.227547125866
 20
2684.594656162318
 30
0.0
 40
15.0
  0
ARC
  5
1EF
330
2
100
AcDbEntity
  8
4
  6
HIDDEN2
100
AcDbCircle
 10
3904.227547125866
 20
2684.594656162318
 30
0.0
 40
20.00000000000477
100
AcDbArc
 50
196.6015495989922
 51
359.9999591100578
  0
LINE
  5
1F0
330
2
100
AcDbEntity
  8
6
100
AcDbLine
 10
3311.429836069368
 20
2734.594656162315
 30
0.0
 11
3341.429836069368
 21
2734.594656162315
 31
0.0
  0
DIMENSION
  5
1F3
330
2
100
AcDbEntity
  8
0
100
AcDbDimension
  2
*D11
 10
3411.429836069359
 20
3077.350703737876
 30
0.0
 11
3256.429836069364
 21
3092.350703737877
 31
0.0
  3
STANDARD
100
AcDbAlignedDimension
 13
3101.429836069368
 23
3062.44624616614
 33
0.0
 14
3411.429836069359
 24
3062.446246166141
 34
0.0
100
AcDbRotatedDimension
1001
ACAD
1000
DSTYLE
1002
{
1070
   147
1040
0.5
1070
   140
1040
0.5
1070
    41
1040
0.5
1002
}
  0
DIMENSION
  5
200
330
2
100
AcDbEntity
  8
0
100
AcDbDimension
  2
*D8
 10
3311.429836069368
 20
3030.998560502919
 30
0.0
 11
3361.429836069364
 21
3045.998560502919
 31
0.0
  3
STANDARD
100
AcDbAlignedDimension
 13
3411.42983606936
 23
2974.594656162315
 33
0.0
 14
3311.429836069368
 24
2974.594656162315
 34
0.0
100
AcDbRotatedDimension
1001
ACAD
1000
DSTYLE
1002
{
1070
   147
1040
0.5
1070
   140
1040
0.5
1070
    41
1040
0.5
1002
}
  0
LINE
  5
20D
330
2
100
AcDbEntity
  8
1
100
AcDbLine
 10
3251.429836069368
 20
2814.594656162315
 30
0.0
 11
3341.429836069368
 21
2814.594656162315
 31
0.0
  0
LWPOLYLINE
  5
20E
330
2
100
AcDbEntity
  8
3
100
AcDbPolyline
 90
        4
 70
     1
 43
0.0
 10
2903.071374495697
 20
3264.436350448022
 10
3190.221905522381
 20
3264.436350448022
 10
3190.221905522381
 20
3156.243968509865
 10
2903.071374495697
 20
3156.243968509865
  0
DIMENSION
  5
20F
330
2
100
AcDbEntity
  8
0
100
AcDbDimension
  2
*D24
 10
3015.873221632593
 20
2814.594656162315
 30
0.0
 11
3000.873221632593
 21
2784.235672313693
 31
0.0
  3
STANDARD
100
AcDbAlignedDimension
 13
3251.429836069367
 23
2753.87668846507
 33
0.0
 14
3251.429836069368
 24
2814.594656162315
 34
0.0
 50
90.0
100
AcDbRotatedDimension
1001
ACAD
1000
DSTYLE
1002
{
1070
   147
1040
0.5
1070
   140
1040
0.5
1070
    41
1040
0.5
1002
}
  0
TEXT
  5
21C
330
2
100
AcDbEntity
  8
3
100
AcDbText
 10
3087.074614859486
 20
2886.07692255241
 30
0.0
 40
10.0
  1
スターティングステップ木口面
 50
90.0
100
AcDbText
  0
LINE
  5
21D
330
2
100
AcDbEntity
  8
6
100
AcDbLine
 10
3311.429836069368
 20
2734.594656162315
 30
0.0
 11
3311.429836069368
 21
2974.594656162315
 31
0.0
  0
CIRCLE
  5
21E
330
2
100
AcDbEntity
  8
2
100
AcDbCircle
 10
3251.429836069366
 20
2753.87668846507
 30
0.0
 40
12.0
  0
LWPOLYLINE
  5
21F
330
2
100
AcDbEntity
  8
3
100
AcDbPolyline
 90
        4
 70
     1
 43
0.0
 10
2913.071374495697
 20
3254.436350448022
 10
3180.221905522381
 20
3254.436350448022
 10
3180.221905522381
 20
3166.243968509865
 10
2913.071374495697
 20
3166.243968509865
  0
TEXT
  5
220
330
2
100
AcDbEntity
  8
3
100
AcDbText
 10
2925.55130271169
 20
3178.649788983474
 30
0.0
 40
30.0
  1
取付基準寸法図
100
AcDbText
  0
TEXT
  5
221
330
2
100
AcDbEntity
  8
3
100
AcDbText
 10
2925.55130271169
 20
3214.649788983473
 30
0.0
 40
30.0
  1
ＳＫ－R
100
AcDbText
  0
LINE
  5
222
330
2
100
AcDbEntity
  8
1
100
AcDbLine
 10
3441.429836069366
 20
2734.594656162315
 30
0.0
 11
3441.429836069365
 21
2974.594656162315
 31
0.0
  0
LINE
  5
223
330
2
100
AcDbEntity
  8
1
100
AcDbLine
 10
3381.429836069365
 20
2734.594656162315
 30
0.0
 11
3381.429836069365
 21
2974.594656162315
 31
0.0
  0
LINE
  5
224
330
2
100
AcDbEntity
  8
1
100
AcDbLine
 10
3341.429836069368
 20
2734.594656162315
 30
0.0
 11
3341.429836069368
 21
2974.594656162315
 31
0.0
  0
LINE
  5
225
330
2
100
AcDbEntity
  8
4
  6
HIDDEN2
100
AcDbLine
 10
3411.429836069366
 20
2734.594656162315
 30
0.0
 11
3411.429836069359
 21
3062.446246166141
 31
0.0
  0
LINE
  5
226
330
2
100
AcDbEntity
  8
1
100
AcDbLine
 10
3441.429836069366
 20
2734.594656162315
 30
0.0
 11
3531.285945802403
 21
2734.594656162315
 31
0.0
  0
LINE
  5
227
330
2
100
AcDbEntity
  8
1
100
AcDbLine
 10
3441.429836069366
 20
2734.594656162315
 30
0.0
 11
3381.429836069367
 21
2734.594656162315
 31
0.0
  0
CIRCLE
  5
228
330
2
100
AcDbEntity
  8
2
100
AcDbCircle
 10
3411.42983606936
 20
2794.594656162315
 30
0.0
 40
12.0
  0
LINE
  5
229
330
2
100
AcDbEntity
  8
1
100
AcDbLine
 10
3341.429836069368
 20
2734.594656162315
 30
0.0
 11
3381.429836069365
 21
2734.594656162315
 31
0.0
  0
CIRCLE
  5
22A
330
2
100
AcDbEntity
  8
2
100
AcDbCircle
 10
3411.42983606936
 20
2914.594656162315
 30
0.0
 40
12.0
  0
TEXT
  5
22B
330
2
100
AcDbEntity
  8
3
100
AcDbText
 10
3429.250474248631
 20
3010.280677419716
 30
0.0
 40
10.0
  1
てすり芯
 50
90.0
100
AcDbText
  0
DIMENSION
  5
22C
330
2
100
AcDbEntity
  8
0
100
AcDbDimension
  2
*D7
 10
3341.429836069368
 20
2996.670624873711
 30
0.0
 11
3376.429836069363
 21
3011.670624873712
 31
0.0
  3
STANDARD
100
AcDbAlignedDimension
 13
3411.42983606936
 23
2974.594656162315
 33
0.0
 14
3341.429836069368
 24
2974.594656162315
 34
0.0
100
AcDbRotatedDimension
1001
ACAD
1000
DSTYLE
1002
{
1070
   147
1040
0.5
1070
   140
1040
0.5
1070
    41
1040
0.5
1002
}
  0
TEXT
  5
239
330
2
100
AcDbEntity
  8
3
100
AcDbText
 10
3700.901717275097
 20
2884.834888060839
 30
0.0
 40
10.0
  1
スターティングステップ木口面
 50
90.0
100
AcDbText
  0
LINE
  5
23A
330
2
100
AcDbEntity
  8
1
100
AcDbLine
 10
3954.227547125862
 20
2734.594656162315
 30
0.0
 11
3954.227547125861
 21
2974.594656162315
 31
0.0
  0
LINE
  5
23B
330
2
100
AcDbEntity
  8
6
100
AcDbLine
 10
3924.227547125861
 20
2734.594656162315
 30
0.0
 11
3924.227547125862
 21
2974.594656162315
 31
0.0
  0
LINE
  5
23C
330
2
100
AcDbEntity
  8
1
100
AcDbLine
 10
3864.227547125862
 20
2814.594656162315
 30
0.0
 11
3954.227547125861
 21
2814.594656162315
 31
0.0
  0
CIRCLE
  5
23D
330
2
100
AcDbEntity
  8
2
100
AcDbCircle
 10
3864.227547125868
 20
2753.876688465069
 30
0.0
 40
12.0
  0
LINE
  5
23E
330
2
100
AcDbEntity
  8
6
100
AcDbLine
 10
3924.227547125861
 20
2734.594656162315
 30
0.0
 11
3954.227547125862
 21
2734.594656162315
 31
0.0
  0
LINE
  5
23F
330
2
100
AcDbEntity
  8
1
100
AcDbLine
 10
3994.22754712587
 20
2684.594656162314
 30
0.0
 11
3994.22754712587
 21
2734.594656162315
 31
0.0
  0
LINE
  5
240
330
2
100
AcDbEntity
  8
1
100
AcDbLine
 10
4054.227547125868
 20
2684.594656162314
 30
0.0
 11
4054.227547125868
 21
2734.594656162315
 31
0.0
  0
DIMENSION
  5
241
330
2
100
AcDbEntity
  8
0
100
AcDbDimension
  2
*D5
 10
4144.083656858896
 20
2514.594656162316
 30
0.0
 11
4129.083656858895
 21
2624.594656162316
 31
0.0
  1
(220.0)
  3
STANDARD
100
AcDbAlignedDimension
 13
4144.083656858896
 23
2734.594656162315
 33
0.0
 14
4144.083656858896
 24
2514.594656162316
 34
0.0
 50
90.0
100
AcDbRotatedDimension
1001
ACAD
1000
DSTYLE
1002
{
1070
   147
1040
0.5
1070
   140
1040
0.5
1070
    41
1040
0.5
1002
}
  0
TEXT
  5
24C
330
2
100
AcDbEntity
  8
3
100
AcDbText
 10
3976.311313238237
 20
2521.068942520163
 30
0.0
 40
10.0
  1
スターティングステップ前面
100
AcDbText
  0
CIRCLE
  5
24D
330
2
100
AcDbEntity
  8
2
100
AcDbCircle
 10
4024.227547125868
 20
2684.594656162318
 30
0.0
 40
12.0
  0
LINE
  5
24E
330
2
100
AcDbEntity
  8
1
100
AcDbLine
 10
4054.227547125868
 20
2734.594656162315
 30
0.0
 11
4054.227547125867
 21
2974.594656162315
 31
0.0
  0
LINE
  5
24F
330
2
100
AcDbEntity
  8
1
100
AcDbLine
 10
3994.227547125867
 20
2734.594656162315
 30
0.0
 11
3994.227547125867
 21
2974.594656162315
 31
0.0
  0
LINE
  5
250
330
2
100
AcDbEntity
  8
4
  6
HIDDEN2
100
AcDbLine
 10
4024.227547125862
 20
2734.594656162315
 30
0.0
 11
4024.227547125861
 21
3062.44624616614
 31
0.0
  0
LINE
  5
251
330
2
100
AcDbEntity
  8
1
100
AcDbLine
 10
4004.227547125867
 20
2734.594656162315
 30
0.0
 11
4144.083656858896
 21
2734.594656162315
 31
0.0
  0
LINE
  5
252
330
2
100
AcDbEntity
  8
4
  6
HIDDEN2
100
AcDbLine
 10
4024.227547125867
 20
2734.594656162315
 30
0.0
 11
4024.227547125867
 21
2902.440753070578
 31
0.0
  0
CIRCLE
  5
253
330
2
100
AcDbEntity
  8
2
100
AcDbCircle
 10
4024.227547125861
 20
2794.594656162315
 30
0.0
 40
12.0
  0
CIRCLE
  5
254
330
2
100
AcDbEntity
  8
2
100
AcDbCircle
 10
4024.227547125861
 20
2914.594656162315
 30
0.0
 40
12.0
  0
TEXT
  5
255
330
2
100
AcDbEntity
  8
3
100
AcDbText
 10
4045.302461743669
 20
3010.280677419716
 30
0.0
 40
10.0
  1
てすり芯
 50
90.0
100
AcDbText
  0
ENDSEC
  0
SECTION
  2
OBJECTS
  0
DICTIONARY
  5
7
330
0
100
AcDbDictionary
  3
ACAD_GROUP
350
26
  3
ACAD_LAYOUT
350
B
  3
ACAD_MLINESTYLE
350
27
  3
ACAD_PLOTSETTINGS
350
28
  3
ACAD_PLOTSTYLENAME
350
6
  3
ACDBHEADERROUNDTRIPXREC
350
259
  3
ACDBVARIABLEDICTIONARY
350
256
  0
DICTIONARY
  5
27A
330
2
100
AcDbDictionary
280
     1
  3
ACAD_LAYOUTSELFREF
360
27B
  0
DICTIONARY
  5
27C
330
C
100
AcDbDictionary
280
     1
  3
ACAD_LAYOUTSELFREF
360
27D
  0
DICTIONARY
  5
26
102
{ACAD_REACTORS
330
7
102
}
330
7
100
AcDbDictionary
  0
DICTIONARY
  5
B
102
{ACAD_REACTORS
330
7
102
}
330
7
100
AcDbDictionary
  0
DICTIONARY
  5
27
102
{ACAD_REACTORS
330
7
102
}
330
7
100
AcDbDictionary
  3
STANDARD
350
29
  0
DICTIONARY
  5
28
102
{ACAD_REACTORS
330
7
102
}
330
7
100
AcDbDictionary
  0
ACDBDICTIONARYWDFLT
  5
6
102
{ACAD_REACTORS
330
7
102
}
330
7
100
AcDbDictionary
281
     1
  3
Normal
350
5
100
AcDbDictionaryWithDefault
340
5
  0
DICTIONARY
  5
259
102
{ACAD_REACTORS
330
7
102
}
330
7
100
AcDbDictionary
  3
CEPSNTYPE
350
263
  3
DIMSTYLEDATA
350
267
  3
FINGERPRINTGUID
350
264
  3
HYPERLINKBASE
350
25C
  3
INSUNITS
350
262
  3
LAYOUTDICT
350
25E
  3
LWETCUNION
350
261
  3
PLOTSETDICT
350
25F
  3
PLOTSTYLNAMDICT
350
260
  3
PSVPSCALE
350
266
  3
PUCSBASE
350
26A
  3
PUCSORGBACK
350
270
  3
PUCSORGBOTTOM
350
26C
  3
PUCSORGFRONT
350
26F
  3
PUCSORGLEFT
350
26D
  3
PUCSORGRIGHT
350
26E
  3
PUCSORGTOP
350
26B
  3
PUCSORTHOREF
350
268
  3
PUCSORTHOVIEW
350
269
  3
STYLESHEET
350
25D
  3
TSTACKALIGN
350
25A
  3
TSTACKSIZE
350
25B
  3
UCSBASE
350
273
  3
UCSORGBACK
350
279
  3
UCSORGBOTTOM
350
275
  3
UCSORGFRONT
350
278
  3
UCSORGLEFT
350
276
  3
UCSORGRIGHT
350
277
  3
UCSORGTOP
350
274
  3
UCSORTHOREF
350
271
  3
UCSORTHOVIEW
350
272
  3
VERSIONGUID
350
265
  0
DICTIONARY
  5
256
102
{ACAD_REACTORS
330
7
102
}
330
7
100
AcDbDictionary
  3
DIMASSOC
350
258
  3
HIDETEXT
350
257
  0
XRECORD
  5
27B
102
{ACAD_REACTORS
330
27A
102
}
330
27A
100
AcDbXrecord
340
2
  0
XRECORD
  5
27D
102
{ACAD_REACTORS
330
27C
102
}
330
27C
100
AcDbXrecord
340
C
  0
MLINESTYLE
  5
29
102
{ACAD_REACTORS
330
27
102
}
330
27
100
AcDbMlineStyle
  2
STANDARD
 70
     0
  3

 62
     0
 51
90.0
 52
90.0
 71
     2
 49
0.5
 62
   256
  6
BYLAYER
 49
-0.5
 62
   256
  6
BYLAYER
  0
ACDBPLACEHOLDER
  5
5
102
{ACAD_REACTORS
330
6
102
}
330
6
100
AcDbPlaceHolder
280
     0
  0
XRECORD
  5
263
102
{ACAD_REACTORS
330
259
102
}
330
259
100
AcDbXrecord
 90
        0
  0
XRECORD
  5
267
102
{ACAD_REACTORS
330
259
102
}
330
259
100
AcDbXrecord
1000
DSTYLE
1002
{
1070
   179
 70
     1
1070
   341
340
1F
1070
   343
340
1F
1070
   344
340
1F
1002
}
  0
XRECORD
  5
264
102
{ACAD_REACTORS
330
259
102
}
330
259
100
AcDbXrecord
  1
{A6916C7A-E337-11D3-A217-00004C9953A3}
  0
XRECORD
  5
25C
102
{ACAD_REACTORS
330
259
102
}
330
259
100
AcDbXrecord
  1

  0
XRECORD
  5
262
102
{ACAD_REACTORS
330
259
102
}
330
259
100
AcDbXrecord
 90
        0
  0
XRECORD
  5
25E
102
{ACAD_REACTORS
330
259
102
}
330
259
100
AcDbXrecord
340
B
  0
XRECORD
  5
261
102
{ACAD_REACTORS
330
259
102
}
330
259
100
AcDbXrecord
 90
    10781
  0
XRECORD
  5
25F
102
{ACAD_REACTORS
330
259
102
}
330
259
100
AcDbXrecord
340
28
  0
XRECORD
  5
260
102
{ACAD_REACTORS
330
259
102
}
330
259
100
AcDbXrecord
340
6
  0
XRECORD
  5
266
102
{ACAD_REACTORS
330
259
102
}
330
259
100
AcDbXrecord
 40
0.0
  0
XRECORD
  5
26A
102
{ACAD_REACTORS
330
259
102
}
330
259
100
AcDbXrecord
340
0
  0
XRECORD
  5
270
102
{ACAD_REACTORS
330
259
102
}
330
259
100
AcDbXrecord
 10
0.0
 20
0.0
 30
0.0
  0
XRECORD
  5
26C
102
{ACAD_REACTORS
330
259
102
}
330
259
100
AcDbXrecord
 10
0.0
 20
0.0
 30
0.0
  0
XRECORD
  5
26F
102
{ACAD_REACTORS
330
259
102
}
330
259
100
AcDbXrecord
 10
0.0
 20
0.0
 30
0.0
  0
XRECORD
  5
26D
102
{ACAD_REACTORS
330
259
102
}
330
259
100
AcDbXrecord
 10
0.0
 20
0.0
 30
0.0
  0
XRECORD
  5
26E
102
{ACAD_REACTORS
330
259
102
}
330
259
100
AcDbXrecord
 10
0.0
 20
0.0
 30
0.0
  0
XRECORD
  5
26B
102
{ACAD_REACTORS
330
259
102
}
330
259
100
AcDbXrecord
 10
0.0
 20
0.0
 30
0.0
  0
XRECORD
  5
268
102
{ACAD_REACTORS
330
259
102
}
330
259
100
AcDbXrecord
340
0
  0
XRECORD
  5
269
102
{ACAD_REACTORS
330
259
102
}
330
259
100
AcDbXrecord
 70
     0
  0
XRECORD
  5
25D
102
{ACAD_REACTORS
330
259
102
}
330
259
100
AcDbXrecord
  1

  0
XRECORD
  5
25A
102
{ACAD_REACTORS
330
259
102
}
330
259
100
AcDbXrecord
 90
        1
  0
XRECORD
  5
25B
102
{ACAD_REACTORS
330
259
102
}
330
259
100
AcDbXrecord
 90
       70
  0
XRECORD
  5
273
102
{ACAD_REACTORS
330
259
102
}
330
259
100
AcDbXrecord
340
0
  0
XRECORD
  5
279
102
{ACAD_REACTORS
330
259
102
}
330
259
100
AcDbXrecord
 10
0.0
 20
0.0
 30
0.0
  0
XRECORD
  5
275
102
{ACAD_REACTORS
330
259
102
}
330
259
100
AcDbXrecord
 10
0.0
 20
0.0
 30
0.0
  0
XRECORD
  5
278
102
{ACAD_REACTORS
330
259
102
}
330
259
100
AcDbXrecord
 10
0.0
 20
0.0
 30
0.0
  0
XRECORD
  5
276
102
{ACAD_REACTORS
330
259
102
}
330
259
100
AcDbXrecord
 10
0.0
 20
0.0
 30
0.0
  0
XRECORD
  5
277
102
{ACAD_REACTORS
330
259
102
}
330
259
100
AcDbXrecord
 10
0.0
 20
0.0
 30
0.0
  0
XRECORD
  5
274
102
{ACAD_REACTORS
330
259
102
}
330
259
100
AcDbXrecord
 10
0.0
 20
0.0
 30
0.0
  0
XRECORD
  5
271
102
{ACAD_REACTORS
330
259
102
}
330
259
100
AcDbXrecord
340
0
  0
XRECORD
  5
272
102
{ACAD_REACTORS
330
259
102
}
330
259
100
AcDbXrecord
 70
     0
  0
XRECORD
  5
265
102
{ACAD_REACTORS
330
259
102
}
330
259
100
AcDbXrecord
  1
{5F60D997-DA2E-4B4B-8A2C-B0FB7932A3F2}
  0
DICTIONARYVAR
  5
258
102
{ACAD_REACTORS
330
256
102
}
330
256
100
DictionaryVariables
280
     0
  1
1
  0
DICTIONARYVAR
  5
257
102
{ACAD_REACTORS
330
256
102
}
330
256
100
DictionaryVariables
280
     0
  1
1
  0
ENDSEC
  0
EOF
